<?xml version="1.0" standalone="no"?>
<!DOCTYPE svg PUBLIC "-//W3C//DTD SVG 1.1//EN" "http://www.w3.org/Graphics/SVG/1.1/DTD/svg11.dtd" >
<svg xmlns="http://www.w3.org/2000/svg" xmlns:xlink="http://www.w3.org/1999/xlink" version="1.1">
<metadata>
Created by FontForge 20170731 at Thu Mar 22 17:25:12 1928
 By Aleksey,,,
(c)1991,1993 Tilde Ltd. AG Fonts collection.
</metadata>
<defs>
<font id="AGLettericaUltraCompressed-Roman" horiz-adv-x="333" >
  <font-face 
    font-family="AGLettericaUltraCompressed"
    font-weight="400"
    font-stretch="normal"
    units-per-em="1000"
    panose-1="0 0 0 0 0 0 0 0 0 0"
    ascent="800"
    descent="-200"
    x-height="572"
    cap-height="712"
    bbox="-57 -179 1000 914"
    underline-thickness="20"
    underline-position="-163"
    unicode-range="U+0020-2122"
  />
<missing-glyph horiz-adv-x="800" 
d="M50 0v800h700v-800h-700zM700 50v700h-600v-700h600z" />
    <glyph glyph-name=".notdef" horiz-adv-x="800" 
d="M50 0v800h700v-800h-700zM700 50v700h-600v-700h600z" />
    <glyph glyph-name=".null" horiz-adv-x="0" 
 />
    <glyph glyph-name="nonmarkingreturn" horiz-adv-x="166" 
 />
    <glyph glyph-name="space" unicode=" " horiz-adv-x="166" 
 />
    <glyph glyph-name="exclam" unicode="!" horiz-adv-x="204" 
d="M152 153h-100v559h100v-559zM152 0h-100v111h100v-111z" />
    <glyph glyph-name="quotedbl" unicode="&#x22;" 
d="M197 441v271h88v-271h-88zM47 441v271h88v-271h-88z" />
    <glyph glyph-name="numbersign" unicode="#" 
d="M342 288v-74h-74l-25 -214h-67l25 214h-97l-25 -214h-66l24 214h-71v74h81l15 136h-72v74h81l26 214h66l-25 -214h97l25 214h66l-24 -214h65v-74h-74l-15 -136h64zM226 424h-97l-15 -136h97z" />
    <glyph glyph-name="dollar" unicode="$" 
d="M197 740v-45q46 0 77.5 -29.5t31.5 -75.5v-145h-106v122q0 29 -5 36t-27 7q-33 0 -33 -28v-71q0 -14 7 -28t28 -41l93 -118q25 -32 34 -58t9 -62v-97q-7 -52 -29 -77q-27 -30 -84 -30v-51h-56v51q-58 0 -84.5 29t-26.5 79v154h106v-122q0 -30 5.5 -42.5t30.5 -12.5
q29 0 29 31v72q0 20 -2.5 29.5t-16.5 28.5l-134 182q-18 26 -18 69v85q19 96 115 113v45h56z" />
    <glyph glyph-name="percent" unicode="%" horiz-adv-x="500" 
d="M159 -8h-48l233 728h48zM16 403v179q0 65 19 94q24 36 86 36q42 0 70.5 -19t34.5 -60v-224q0 -44 -29.5 -67.5t-79.5 -23.5q-47 0 -72 18q-29 21 -29 67zM97 615v-194v-22q3 -19 26 -19q13 0 17.5 9t4.5 24v15v176q0 25 -1 29q-4 17 -21 17t-21.5 -8t-4.5 -27zM274 85
v179q0 65 19 94q24 36 86 36q42 0 70.5 -19t34.5 -60v-224q0 -44 -29.5 -67.5t-79.5 -23.5q-47 0 -72 18q-29 21 -29 67zM355 297v-194v-22q3 -19 26 -19q13 0 17.5 9t4.5 24v15v176q0 25 -1 29q-4 17 -21 17t-21.5 -8t-4.5 -27z" />
    <glyph glyph-name="ampersand" unicode="&#x26;" horiz-adv-x="389" 
d="M138 129q0 -39 17 -53q13 -11 43 -11q25 0 31 9q-31 61 -51 112q-23 58 -37 117zM215 524v101q0 28 -31 28q-18 0 -25 -8t-7 -31v-97q0 -15 4.5 -28t13.5 -26q25 16 35 30t10 31zM263 380h93v-253q0 -13 -2.5 -23t-8.5 -29h35v-75h-64q-23 0 -37 13q-21 -16 -44.5 -21.5
t-52.5 -5.5q-64 0 -107 40t-43 104v141q0 47 13.5 82.5t49.5 55.5q-18 22 -28.5 57t-10.5 104q0 80 26 115q31 41 110 41q70 0 96 -38q23 -33 23 -110q0 -65 -21 -104q-24 -44 -89 -86q16 -41 32.5 -94t27.5 -98z" />
    <glyph glyph-name="quotesingle" unicode="'" horiz-adv-x="222" 
d="M67 441v271h88v-271h-88z" />
    <glyph glyph-name="parenleft" unicode="(" horiz-adv-x="167" 
d="M98 712h87q-43 -99 -63.5 -192t-20.5 -197q0 -120 20 -222t69 -198h-88q-48 90 -68.5 196t-20.5 224q0 100 21.5 196t63.5 193z" />
    <glyph glyph-name="parenright" unicode=")" horiz-adv-x="167" 
d="M-18 712h87q42 -97 63.5 -192t21.5 -197q0 -121 -18 -216q-21 -111 -71 -204h-88q47 92 68 198.5t21 221.5q0 103 -21 197t-63 192z" />
    <glyph glyph-name="asterisk" unicode="*" horiz-adv-x="315" 
d="M221 454l-65 83l-63 -83l-45 31l67 81l-100 48l22 43l94 -42v97h52v-96l95 41l22 -43l-103 -47l69 -82z" />
    <glyph glyph-name="plus" unicode="+" horiz-adv-x="500" 
d="M207 330v201h88v-201h200v-88h-200v-201h-88v201h-202v88h202z" />
    <glyph glyph-name="comma" unicode="," horiz-adv-x="166" 
d="M74 -125h-59l32 236h100z" />
    <glyph glyph-name="hyphen" unicode="-" horiz-adv-x="166" 
d="M20 264v72h127v-72h-127z" />
    <glyph glyph-name="period" unicode="." horiz-adv-x="166" 
d="M133 0h-100v111h100v-111z" />
    <glyph glyph-name="slash" unicode="/" horiz-adv-x="278" 
d="M234 726h53l-244 -740h-53z" />
    <glyph glyph-name="zero" unicode="0" 
d="M28 130v447q0 79 36 113q32 30 102 30q69 0 102 -30q37 -34 37 -113v-447q0 -138 -144 -138q-60 0 -95 33q-38 36 -38 105zM134 590v-456q0 -27 6 -42t28 -15q19 0 25 16t6 37v460q0 45 -35 45q-12 0 -21 -12.5t-9 -32.5z" />
    <glyph glyph-name="one" unicode="1" 
d="M48 545v74q49 8 70 25q27 22 27 68h87v-712h-106v545h-78z" />
    <glyph glyph-name="two" unicode="2" 
d="M144 85h157v-85h-273v45q0 90 44 187q5 12 82 153q45 83 45 131v66q0 53 -29 53q-36 0 -36 -53v-125h-106v112q0 82 35.5 116.5t118.5 34.5q70 0 100 -50q23 -39 23 -114q0 -85 -41 -175l-78 -148q-42 -84 -42 -148z" />
    <glyph glyph-name="three" unicode="3" 
d="M28 262h106v-109q0 -46 10 -64q7 -12 19 -12q18 0 25 8q11 13 11 47v129q0 30 -12.5 43.5t-36.5 13.5h-16v85q38 0 51.5 17.5t13.5 52.5v64v37q0 33 -5 47t-24 14q-17 0 -26.5 -10.5t-9.5 -40.5v-17v-108h-106v116q0 79 35 112t107 33q71 0 105 -40q30 -35 30 -99v-115
q0 -39 -15 -62q-20 -31 -69 -42v-4q54 -18 71 -43q13 -19 13 -59v-120q0 -81 -38 -115q-32 -29 -100 -29q-80 0 -112 46q-27 39 -27 123v101z" />
    <glyph glyph-name="four" unicode="4" 
d="M135 712h150v-446h42v-85h-42v-181h-101v181h-178v74zM94 266h90v356q-23 -110 -40 -180q-21 -85 -50 -176z" />
    <glyph glyph-name="five" unicode="5" 
d="M28 262h106v-133q0 -26 6.5 -39t30.5 -13q18 0 23 13t5 39v178q0 23 -6.5 35.5t-25.5 12.5q-26 0 -30 -22h-105v379h266v-85h-160v-211q19 15 38 23t40 8q51 0 72 -41q17 -33 17 -95v-173q0 -68 -28 -103q-34 -43 -115 -43q-59 0 -93 25q-41 30 -41 96v149z" />
    <glyph glyph-name="six" unicode="6" 
d="M305 321v-189q0 -66 -25 -98q-33 -42 -115 -42q-137 0 -137 132v453q0 69 33.5 106t106.5 37t105 -37t32 -110v-117h-106v134q0 23 -6 34t-26 11t-26.5 -12t-6.5 -33v-190q32 34 79 34q40 0 62 -20q30 -27 30 -93zM199 123v173q0 21 -7 31.5t-27 10.5q-14 0 -22.5 -8.5
t-8.5 -33.5v-159q0 -30 5.5 -45t29.5 -15q19 0 26 15q4 9 4 31z" />
    <glyph glyph-name="seven" unicode="7" 
d="M20 627v85h294v-88l-155 -624h-113l162 627h-188z" />
    <glyph glyph-name="eight" unicode="8" 
d="M28 122v133q0 45 14 68q19 31 72 44q-48 1 -69 33q-17 26 -17 73v111q0 74 46 109q35 27 88 27q60 0 97 -29q45 -35 45 -107l1 -100q0 -47 -16 -76q-22 -39 -68 -39q42 -13 65 -39q19 -22 19 -44v-179q0 -52 -38.5 -83.5t-103.5 -31.5q-64 0 -99.5 33.5t-35.5 96.5z
M199 128v153q0 17 -6 26q-9 13 -27 13t-25 -10.5t-7 -28.5v-153q0 -51 34 -51q20 0 27 17q4 10 4 34zM199 460v129q0 27 -7 36.5t-25 9.5t-25.5 -12t-7.5 -34v-126q0 -28 7 -37t28 -9q30 0 30 43z" />
    <glyph glyph-name="nine" unicode="9" 
d="M28 353v233q0 66 25 98q33 42 115 42q137 0 137 -132v-453q0 -69 -32 -104q-35 -39 -108 -39t-105 37t-32 110v71h106v-88q0 -23 6 -34t26 -11t26.5 12t6.5 33v146q-32 -34 -79 -34q-40 0 -62 20q-30 27 -30 93zM134 595v-217q0 -21 7 -31.5t27 -10.5q14 0 22.5 8.5
t8.5 33.5v203q0 30 -4 41q-7 19 -31 19q-19 0 -24.5 -12t-5.5 -34z" />
    <glyph glyph-name="colon" unicode=":" horiz-adv-x="166" 
d="M133 0h-100v111h100v-111zM133 410h-100v111h100v-111z" />
    <glyph glyph-name="semicolon" unicode=";" horiz-adv-x="166" 
d="M67 -125h-59l32 236h100zM133 410h-100v111h100v-111z" />
    <glyph glyph-name="less" unicode="&#x3c;" horiz-adv-x="500" 
d="M469 137v-75l-437 191v66l437 191v-75l-339 -149z" />
    <glyph glyph-name="equal" unicode="=" horiz-adv-x="500" 
d="M495 432v-88h-490v88h490zM495 228v-88h-490v88h490z" />
    <glyph glyph-name="greater" unicode="&#x3e;" horiz-adv-x="500" 
d="M31 395v75l437 -191v-66l-437 -192v76l338 149z" />
    <glyph glyph-name="question" unicode="?" 
d="M140 460h-96v158q0 108 119 108q62 0 91 -25q35 -30 35 -100v-80q0 -26 -2 -45.5t-9 -32.5l-49 -96q-6 -12 -8.5 -30.5t-2.5 -52.5v-111h-100v152q0 18 2 33t9 29l47 95q8 18 12.5 31.5t4.5 27.5v99q0 21 -4.5 28.5t-22.5 7.5q-14 0 -20 -8.5t-6 -30.5v-157zM218 0h-100
v111h100v-111z" />
    <glyph glyph-name="at" unicode="@" horiz-adv-x="800" 
d="M365 222q54 0 94 56q37 51 37 110q0 36 -23 62t-56 26q-55 0 -96 -55q-37 -50 -37 -108q0 -40 22.5 -65.5t58.5 -25.5zM526 488l17 56h76l-68 -262q-2 -7 -5 -22.5t-3 -22.5q0 -23 18 -23q46 0 85.5 57t39.5 135q0 117 -77 182.5t-194 65.5q-128 0 -208.5 -85t-80.5 -215
q0 -131 84.5 -213.5t214.5 -82.5q65 0 123.5 24t98.5 69h78q-50 -79 -130 -122t-174 -43q-159 0 -269 106t-110 265q0 154 109.5 261.5t264.5 107.5q139 0 240 -85.5t101 -218.5q0 -131 -91 -216q-75 -70 -151 -70q-24 0 -41.5 15.5t-17.5 43.5q-27 -27 -52 -41
q-32 -18 -62 -18q-63 0 -107 49t-44 116q0 100 60 176q64 81 160 81q37 0 66.5 -17t48.5 -53z" />
    <glyph glyph-name="A" unicode="A" 
d="M135 286h55l-22 296h-7zM6 0l81 712h159l81 -712h-107l-20 193h-75l-23 -193h-96z" />
    <glyph glyph-name="B" unicode="B" 
d="M134 631v-214h24q21 0 29.5 11.5t8.5 41.5v108q0 31 -8 42t-30 11h-24zM28 0v712h150q62 0 93 -34t31 -94v-113q0 -43 -26 -65q-22 -18 -72 -30q56 -12 76 -32q25 -24 25 -81v-113q0 -68 -30 -107q-33 -43 -98 -43h-149zM134 332v-247h21q24 0 34 12t10 44v135
q0 32 -10 44t-34 12h-21z" />
    <glyph glyph-name="C" unicode="C" 
d="M305 452h-106v145q0 25 -7.5 34.5t-24.5 9.5q-18 0 -25.5 -8.5t-7.5 -35.5v-482q0 -26 8 -35t25 -9t24.5 8.5t7.5 35.5v154h106v-163q0 -65 -44 -95q-36 -25 -95 -25q-57 0 -93 25q-45 31 -45 95v500q0 64 44 95q36 25 94 25t94 -25q45 -31 45 -95v-154z" />
    <glyph glyph-name="D" unicode="D" 
d="M28 0v712h128q81 0 115 -34t34 -127v-422q0 -54 -33.5 -91.5t-92.5 -37.5h-151zM134 627v-542h25q22 0 31 10t9 43v436q0 34 -8.5 43.5t-31.5 9.5h-25z" />
    <glyph glyph-name="E" unicode="E" horiz-adv-x="278" 
d="M269 0h-238v712h236v-93h-130v-183h125v-93h-125v-250h132v-93z" />
    <glyph glyph-name="F" unicode="F" horiz-adv-x="278" 
d="M137 0h-106v712h238v-93h-132v-183h127v-93h-127v-343z" />
    <glyph glyph-name="G" unicode="G" 
d="M157 355h148v-355h-53l-3 45q-32 -59 -98 -59q-47 0 -80 25q-43 32 -43 95v500q0 64 44 95q36 25 94 25t94 -25q45 -31 45 -95v-151h-106v142q0 25 -7.5 34.5t-24.5 9.5q-18 0 -25.5 -8.5t-7.5 -35.5v-482q0 -26 8 -35t25 -9t24.5 8.5t7.5 35.5v155h-42v85z" />
    <glyph glyph-name="H" unicode="H" 
d="M137 0h-106v712h106v-273h59v273h106v-712h-106v346h-59v-346z" />
    <glyph glyph-name="I" unicode="I" horiz-adv-x="167" 
d="M136 0h-106v712h106v-712z" />
    <glyph glyph-name="J" unicode="J" 
d="M196 712h106v-604q0 -64 -46 -96q-37 -26 -93 -26q-57 0 -94.5 37.5t-37.5 95.5v152h106v-149q0 -32 8 -41.5t22 -9.5t21.5 9t7.5 42v590z" />
    <glyph glyph-name="K" unicode="K" 
d="M137 0h-106v712h106v-321l84 321h103l-81 -325l83 -387h-109l-77 361z" />
    <glyph glyph-name="L" unicode="L" horiz-adv-x="278" 
d="M272 0h-241v712h106v-619h135v-93z" />
    <glyph glyph-name="M" unicode="M" horiz-adv-x="481" 
d="M289 0h-97l-38 343l-25 238h-4q0 -22 2 -79.5t2 -59.5v-442h-93v712h157l34 -294q9 -64 13 -121t4 -101h5q0 126 10 221l29 295h157v-712h-93v328q0 43 2 142.5t2 110.5h-4l-26 -274z" />
    <glyph glyph-name="N" unicode="N" horiz-adv-x="389" 
d="M31 712h159l30 -205q10 -57 23 -134t20 -143t7 -126h4v38q0 52 -1 104l-2 104v362h87v-712h-157l-50 356q-8 42 -15 96q-2 14 -17 156h-4l3 -92v-516h-87v712z" />
    <glyph glyph-name="O" unicode="O" 
d="M134 597v-482q0 -26 8 -35t25 -9t24.5 8.5t7.5 35.5v482q0 25 -7.5 34.5t-24.5 9.5q-18 0 -25.5 -8.5t-7.5 -35.5zM28 106v500q0 64 44 95q36 25 94 25t94 -25q45 -31 45 -95v-500q0 -65 -44 -95q-36 -25 -95 -25q-57 0 -93 25q-45 31 -45 95z" />
    <glyph glyph-name="P" unicode="P" 
d="M134 0h-106v712h111q88 0 127 -33t39 -106v-154q0 -83 -43 -116q-39 -30 -128 -30v-273zM134 627v-269h12q24 0 37.5 6t15.5 26v169q0 46 -16 59q-11 9 -49 9z" />
    <glyph glyph-name="Q" unicode="Q" 
d="M134 597v-482q0 -26 8 -35t25 -9t24.5 8.5t7.5 35.5v482q0 25 -7.5 34.5t-24.5 9.5q-18 0 -25.5 -8.5t-7.5 -35.5zM28 106v500q0 64 44 95q36 25 94 25t94 -25q45 -31 45 -95v-500q0 -36 -14 -61t-39 -38q0 -7 16 -7h47v-79h-54q-36 0 -48.5 17.5t-12.5 51.5
q-15 -4 -34 -4q-57 0 -93 25q-45 31 -45 95z" />
    <glyph glyph-name="R" unicode="R" 
d="M134 0h-106v712h140q68 0 100 -26q37 -30 37 -96v-101q0 -47 -18 -70q-24 -30 -87 -37q45 -8 68 -23q33 -22 33 -66q0 -96 2.5 -160.5t14.5 -132.5h-106q-8 35 -11 85t-3 98v45t1 44q0 32 -14 45t-51 13v-330zM134 627v-210h20q25 0 35 12t10 34v129q0 19 -11 27t-29 8
h-25z" />
    <glyph glyph-name="S" unicode="S" 
d="M134 270v-155q0 -26 8 -35t25 -9t24.5 8.5t7.5 35.5v75q0 42 -42.5 96.5t-83.5 105.5q-45 63 -45 112v102q0 64 44 95q36 25 94 25t94 -25q45 -31 45 -95v-150h-106v141q0 25 -7.5 34.5t-24.5 9.5q-18 0 -25.5 -8.5t-7.5 -35.5v-88q0 -21 44 -78l82 -106q45 -63 45 -93
v-126q0 -65 -44 -95q-36 -25 -95 -25q-57 0 -93 25q-45 31 -45 95v164h106z" />
    <glyph glyph-name="T" unicode="T" horiz-adv-x="315" 
d="M12 712h291v-93h-92v-619h-106v619h-93v93z" />
    <glyph glyph-name="U" unicode="U" 
d="M199 712h106v-606q0 -65 -44 -95q-36 -25 -95 -25q-57 0 -93 25q-45 31 -45 95v606h106v-597q0 -26 8 -35t25 -9t24.5 8.5t7.5 35.5v597z" />
    <glyph glyph-name="V" unicode="V" 
d="M4 712h106l33 -297q4 -36 12 -141t12 -139l23 256l32 321h106l-84 -712h-160z" />
    <glyph glyph-name="W" unicode="W" horiz-adv-x="481" 
d="M198 0h-123l-65 712h107l22 -259q0 -37 4 -93q9 -126 9 -159h5q0 52 3 104q9 156 9 173l24 234h115l22 -281q0 -50 5.5 -126t5.5 -104h5q0 112 11 209l27 302h86l-71 -712h-115l-18 256q0 42 -4 103q-9 138 -9 172h-5q-1 -10 -11 -146q-2 -29 -9 -89z" />
    <glyph glyph-name="X" unicode="X" 
d="M100 0h-99l89 360l-81 352h110q24 -114 35 -174.5t15 -106.5q2 54 23 135q15 54 22 80l17 66h99l-86 -325l88 -387h-109l-38 172q-7 34 -16 90q-2 18 -7 49q0 -66 -21 -150t-41 -161z" />
    <glyph glyph-name="Y" unicode="Y" 
d="M4 712h109l35 -155q10 -46 15 -86t8 -68q3 77 20 149l38 160h99l-109 -441v-271h-106v266z" />
    <glyph glyph-name="Z" unicode="Z" horiz-adv-x="259" 
d="M13 712h233v-78l-124 -541h125v-93h-236v74l123 545h-121v93z" />
    <glyph glyph-name="bracketleft" unicode="[" horiz-adv-x="222" 
d="M208 -97h-178v809h178v-70h-90v-669h90v-70z" />
    <glyph glyph-name="backslash" unicode="\" horiz-adv-x="278" 
d="M-57 726h54l338 -740h-56z" />
    <glyph glyph-name="bracketright" unicode="]" horiz-adv-x="222" 
d="M14 -97v70h90v669h-90v70h178v-809h-178z" />
    <glyph glyph-name="asciicircum" unicode="^" horiz-adv-x="500" 
d="M100 308h-90l199 404h82l199 -404h-90l-150 312z" />
    <glyph glyph-name="underscore" unicode="_" horiz-adv-x="500" 
d="M500 -98h-500v68h500v-68z" />
    <glyph glyph-name="grave" unicode="`" horiz-adv-x="148" 
d="M48 804l93 -171h-54l-138 171h99z" />
    <glyph glyph-name="a" unicode="a" horiz-adv-x="278" 
d="M162 98v198q-24 -14 -33 -24q-13 -14 -13 -34v-144q3 -19 23 -19q23 4 23 23zM258 483v-483h-90q-3 7 -4.5 17t-1.5 22q-17 -25 -33 -35.5t-44 -10.5q-65 0 -65 66v192q0 54 69.5 89t69.5 112v16q0 17 -3.5 29t-15.5 12q-14 0 -18.5 -13.5t-4.5 -33.5v-19v-75h-97v115
q0 44 32 70t87 26t87 -26t32 -70z" />
    <glyph glyph-name="b" unicode="b" horiz-adv-x="278" 
d="M162 110v352q0 21 -6 28t-17 7t-17 -7t-6 -28v-352q0 -21 6 -28t17 -7t17 7t6 28zM20 0v712h96v-176q14 19 31.5 31t39.5 12q31 0 51 -16.5t20 -50.5v-452q0 -34 -20 -50.5t-51 -16.5q-21 0 -38 11t-31 30l-2 -34h-96z" />
    <glyph glyph-name="c" unicode="c" horiz-adv-x="278" 
d="M20 89v394q0 44 32 70t87 26t87 -26t32 -70v-115h-96v106q0 21 -6 28t-17 7t-17 -7t-6 -28v-383q0 -18 5 -23t18 -5t18 5t5 23v134h96v-136q0 -44 -32 -70t-87 -26t-87 26t-32 70z" />
    <glyph glyph-name="d" unicode="d" horiz-adv-x="278" 
d="M116 462v-352q0 -21 6 -28t17 -7t17 7t6 28v352q0 21 -6 28t-17 7t-17 -7t-6 -28zM258 712v-712h-96v34q-14 -17 -32.5 -29t-38.5 -12q-31 0 -49 15q-22 18 -22 52v452q0 34 20 50.5t51 16.5q22 0 39.5 -12t29.5 -31l2 176h96z" />
    <glyph glyph-name="e" unicode="e" horiz-adv-x="278" 
d="M162 225h96v-136q0 -44 -32 -70t-87 -26t-87 26t-32 70v394q0 44 32 70t87 26t87 -26t32 -70v-210h-142v-182q0 -18 5 -23t18 -5t18 5t5 23v134zM162 340v141q0 18 -5 23t-18 5t-18 -5t-5 -23v-141h46z" />
    <glyph glyph-name="f" unicode="f" horiz-adv-x="167" 
d="M35 0v496h-30v76h30v72q0 33 13 48q17 20 59 20h54v-76h-13q-10 0 -13.5 -8t-3.5 -21v-35h30v-76h-30v-496h-96z" />
    <glyph glyph-name="g" unicode="g" horiz-adv-x="278" 
d="M116 462v-280q0 -21 6 -28t17 -7t17 7t6 28v280q0 21 -6 28t-17 7t-17 -7t-6 -28zM258 572v-604q0 -44 -32 -70t-87 -26t-87 26t-32 70v71h94v-62q0 -21 6 -28t17 -7t17 7t6 28v127q-24 -39 -68 -39q-36 0 -54 19.5t-18 56.5v362q0 76 72 76q18 0 36 -11t34 -30v34h96z
" />
    <glyph glyph-name="h" unicode="h" horiz-adv-x="278" 
d="M116 712v-173q24 40 68 40q49 0 64 -29q10 -19 10 -74v-476h-96v462q0 13 -2 24t-19 11q-13 0 -19 -7t-6 -28v-462h-96v712h96z" />
    <glyph glyph-name="i" unicode="i" horiz-adv-x="148" 
d="M122 0h-96v572h96v-572zM122 712v-102h-96v102h96z" />
    <glyph glyph-name="j" unicode="j" horiz-adv-x="148" 
d="M-17 -128v76q24 0 33.5 8.5t9.5 31.5v584h96v-581q0 -75 -20 -97t-63 -22h-56zM122 712v-102h-96v102h96z" />
    <glyph glyph-name="k" unicode="k" horiz-adv-x="278" 
d="M118 0h-96v712h96v-403h4l52 263h96l-55 -258l58 -314h-98l-53 301h-4v-301z" />
    <glyph glyph-name="l" unicode="l" horiz-adv-x="148" 
d="M122 0h-96v712h96v-712z" />
    <glyph glyph-name="m" unicode="m" horiz-adv-x="426" 
d="M121 572v-38q14 20 28 31q19 14 41 14q25 0 39.5 -9t28.5 -32q21 41 69 41q49 0 64 -29q10 -19 10 -74v-476h-96v462q0 16 -4 25.5t-19 9.5q-13 0 -17 -9t-4 -26v-462h-96v462q0 16 -4 25.5t-19 9.5q-13 0 -17 -9t-4 -26v-462h-96v572h96z" />
    <glyph glyph-name="n" unicode="n" horiz-adv-x="278" 
d="M20 0v572h96v-33q24 40 68 40q49 0 64 -29q10 -19 10 -74v-476h-96v462q0 13 -2 24t-19 11q-13 0 -19 -7t-6 -28v-462h-96z" />
    <glyph glyph-name="o" unicode="o" horiz-adv-x="278" 
d="M258 483v-394q0 -44 -32 -70t-87 -26t-87 26t-32 70v394q0 44 32 70t87 26t87 -26t32 -70zM162 91v390q0 18 -5 23t-18 5t-18 -5t-5 -23v-390q0 -18 5 -23t18 -5t18 5t5 23z" />
    <glyph glyph-name="p" unicode="p" horiz-adv-x="278" 
d="M162 110v352q0 21 -6 28t-17 7t-17 -7t-6 -28v-352q0 -21 6 -28t17 -7t17 7t6 28zM20 -128v700h96v-34q14 17 32.5 29t38.5 12q31 0 51 -16.5t20 -50.5v-452q0 -34 -20 -50.5t-51 -16.5q-22 0 -39.5 12t-29.5 31l-2 -164h-96z" />
    <glyph glyph-name="q" unicode="q" horiz-adv-x="278" 
d="M116 462v-352q0 -21 6 -28t17 -7t17 7t6 28v352q0 21 -6 28t-17 7t-17 -7t-6 -28zM258 572v-700h-96v164q-14 -19 -31.5 -31t-39.5 -12q-31 0 -49 15q-22 18 -22 52v452q0 34 20 50.5t51 16.5q21 0 38 -11t31 -30l2 34h96z" />
    <glyph glyph-name="r" unicode="r" horiz-adv-x="278" 
d="M20 0v572h96v-33q24 40 68 40q50 0 65 -32q9 -20 9 -77v-197h-96v189q0 13 -2 24t-19 11q-13 0 -19 -7t-6 -28v-462h-96z" />
    <glyph glyph-name="s" unicode="s" horiz-adv-x="278" 
d="M20 223h96v-125q0 -21 6 -28t17 -7t17 7t6 28v59q0 46 -71 125t-71 124v77q0 44 32 70t87 26t87 -26t32 -70v-118h-96v109q0 21 -6 28t-17 7t-17 -7t-6 -28v-47q0 -26 71 -101t71 -121v-116q0 -44 -32 -70t-87 -26t-87 26t-32 70v134z" />
    <glyph glyph-name="t" unicode="t" horiz-adv-x="167" 
d="M130 675v-103h31v-76h-31v-374q0 -30 5.5 -38t15.5 -8h10v-76h-55q-29 0 -48 18q-24 23 -24 58v420h-28v76h28v103h96z" />
    <glyph glyph-name="u" unicode="u" horiz-adv-x="278" 
d="M258 572v-572h-96v33q-24 -40 -68 -40q-50 0 -65 32q-9 20 -9 77v470h96v-462q0 -13 2 -24t19 -11q13 0 19 7t6 28v462h96z" />
    <glyph glyph-name="v" unicode="v" horiz-adv-x="278" 
d="M76 0l-74 572h96l23 -199q7 -58 10 -130.5t3 -131.5h4q0 100 12 199l30 262h95l-79 -572h-120z" />
    <glyph glyph-name="w" unicode="w" horiz-adv-x="444" 
d="M170 572h107l16 -232q0 -34 4 -85q9 -115 9 -144q2 53 5.5 102.5t10.5 107.5l19 251h99l-71 -572h-105l-23 191q-7 69 -12.5 141t-5.5 131q-2 -65 -4.5 -99t-10.5 -120l-26 -244h-113l-66 572h99l21 -269q0 -25 7 -118q4 -53 4 -74h4q0 45 2 78q7 114 7 117z" />
    <glyph glyph-name="x" unicode="x" horiz-adv-x="259" 
d="M9 572h96q13 -98 27 -196q1 35 11 104t12 92h92l-48 -270l56 -302h-96q-9 47 -15 91q-9 71 -17 143q-1 -49 -11.5 -112.5t-19.5 -121.5h-92l58 300z" />
    <glyph glyph-name="y" unicode="y" horiz-adv-x="278" 
d="M70 99l-66 473h95l21 -190q16 -144 16 -256h4q0 126 15 236l23 210h95l-85 -606q-9 -63 -26.5 -78.5t-79.5 -15.5l-59 1v75h29q20 0 27 9t7 25t-7.5 59t-8.5 58z" />
    <glyph glyph-name="z" unicode="z" horiz-adv-x="222" 
d="M4 79l109 417h-109v76h205v-76l-110 -420h118v-76h-213v79z" />
    <glyph glyph-name="braceleft" unicode="{" 
d="M37 278v62q33 0 59.5 25.5t26.5 65.5v167q0 52 38 85q34 29 75 29h78v-70h-53q-27 0 -38.5 -18.5t-11.5 -40.5v-164q0 -52 -36 -83q-25 -21 -55 -26q35 -8 55 -26q36 -31 36 -89v-163q0 -29 10.5 -44t39.5 -15h53v-70h-78q-40 0 -74 29q-39 33 -39 85v166
q0 44 -26.5 69.5t-59.5 25.5z" />
    <glyph glyph-name="bar" unicode="|" horiz-adv-x="222" 
d="M67 0v712h88v-712h-88z" />
    <glyph glyph-name="braceright" unicode="}" 
d="M19 -97v70h53q27 0 40 21q10 16 10 38v164q0 52 36 83q25 21 55 26q-35 8 -55 26q-36 31 -36 89v163q0 29 -9 42q-12 17 -41 17h-53v70h78q40 0 74 -29q39 -33 39 -85v-166q0 -44 28 -71q25 -24 58 -24v-62q-33 0 -59.5 -25.5t-26.5 -65.5v-167q0 -52 -38 -85
q-34 -29 -75 -29h-78z" />
    <glyph glyph-name="asciitilde" unicode="~" horiz-adv-x="500" 
d="M445 365l36 -70q-31 -43 -50 -59q-33 -27 -75 -27q-33 0 -133 46q-48 22 -84 22q-29 0 -52 -23q-18 -18 -32 -49l-36 70q20 39 45 59q33 27 80 27q40 0 115 -34t98 -34q26 0 50 23q16 15 38 49z" />
    <glyph glyph-name="c128" horiz-adv-x="407" 
d="M376 102q0 -56 -23.5 -86t-69.5 -30h-45v85q17 0 24.5 9.5t7.5 34.5v272q0 21 -24 21q-20 0 -35 -21v-387h-106v619h-93v93h291v-93h-92v-139q29 23 72 23q48 0 72 -34q21 -30 21 -82v-285z" />
    <glyph glyph-name="c128" unicode="&#x402;" horiz-adv-x="407" 
d="M376 102q0 -56 -23.5 -86t-69.5 -30h-45v85q17 0 24.5 9.5t7.5 34.5v272q0 21 -24 21q-20 0 -35 -21v-387h-106v619h-93v93h291v-93h-92v-139q29 23 72 23q48 0 72 -34q21 -30 21 -82v-285z" />
    <glyph glyph-name="c129" horiz-adv-x="278" 
d="M137 0h-106v712h241v-93h-135v-619zM60 743l93 171h99l-138 -171h-54z" />
    <glyph glyph-name="c129" unicode="&#x403;" horiz-adv-x="278" 
d="M137 0h-106v712h241v-93h-135v-619zM60 743l93 171h99l-138 -171h-54z" />
    <glyph glyph-name="c141" 
d="M137 0h-106v712h106v-321l84 321h103l-81 -325l83 -387h-109l-77 361zM83 743l93 171h99l-138 -171h-54z" />
    <glyph glyph-name="c141" unicode="&#x40c;" 
d="M137 0h-106v712h106v-321l84 321h103l-81 -325l83 -387h-109l-77 361zM83 743l93 171h99l-138 -171h-54z" />
    <glyph glyph-name="c142" horiz-adv-x="407" 
d="M211 387v-387h-106v619h-93v93h291v-93h-92v-139q29 23 72 23q48 0 72 -34q21 -30 21 -82v-387h-106v387q0 21 -24 21q-20 0 -35 -21z" />
    <glyph glyph-name="c142" unicode="&#x40b;" horiz-adv-x="407" 
d="M211 387v-387h-106v619h-93v93h291v-93h-92v-139q29 23 72 23q48 0 72 -34q21 -30 21 -82v-387h-106v387q0 21 -24 21q-20 0 -35 -21z" />
    <glyph glyph-name="c143" 
d="M114 0h-83v712h106v-619h59v619h106v-712h-83v-108h-105v108z" />
    <glyph glyph-name="c143" unicode="&#x40f;" 
d="M114 0h-83v712h106v-619h59v619h106v-712h-83v-108h-105v108z" />
    <glyph glyph-name="c144" horiz-adv-x="292" 
d="M176 -33v385q0 13 -2 24t-19 11q-13 0 -19 -7t-6 -28v-352h-96v496h-28v76h28v140h96v-140h62v-76h-62v-67q24 40 68 40q49 0 64 -29q10 -19 10 -74v-398q0 -44 -32 -70t-87 -26v70q23 0 23 25z" />
    <glyph glyph-name="c144" unicode="&#x452;" horiz-adv-x="292" 
d="M176 -33v385q0 13 -2 24t-19 11q-13 0 -19 -7t-6 -28v-352h-96v496h-28v76h28v140h96v-140h62v-76h-62v-67q24 40 68 40q49 0 64 -29q10 -19 10 -74v-398q0 -44 -32 -70t-87 -26v70q23 0 23 25z" />
    <glyph glyph-name="c157" horiz-adv-x="278" 
d="M118 0h-96v572h96v-263h4l52 263h96l-55 -258l58 -314h-98l-53 301h-4v-301zM59 622l93 171h99l-138 -171h-54z" />
    <glyph glyph-name="c157" unicode="&#x45c;" horiz-adv-x="278" 
d="M118 0h-96v572h96v-263h4l52 263h96l-55 -258l58 -314h-98l-53 301h-4v-301zM59 622l93 171h99l-138 -171h-54z" />
    <glyph glyph-name="c158" horiz-adv-x="292" 
d="M34 572v140h96v-140h62v-76h-62v-67q24 40 68 40q49 0 64 -29q10 -19 10 -74v-366h-96v352q0 13 -2 24t-19 11q-13 0 -19 -7t-6 -28v-352h-96v496h-28v76h28z" />
    <glyph glyph-name="c158" unicode="&#x45b;" horiz-adv-x="292" 
d="M34 572v140h96v-140h62v-76h-62v-67q24 40 68 40q49 0 64 -29q10 -19 10 -74v-366h-96v352q0 13 -2 24t-19 11q-13 0 -19 -7t-6 -28v-352h-96v496h-28v76h28z" />
    <glyph glyph-name="nonbreakingspace" unicode="&#xa0;" horiz-adv-x="500" 
 />
    <glyph glyph-name="exclamdown" unicode="&#xa1;" 
d="M4 712h109l40 -260l16 -118l17 113l43 265h99l-129 -712h-96l20 115zM41 884h32q4 -36 24.5 -51t58.5 -15q53 0 72 8q33 14 33 58h29q0 -57 -33.5 -91.5t-90.5 -34.5t-91 35t-34 91z" />
    <glyph glyph-name="exclamdown" unicode="&#x40e;" 
d="M4 712h109l40 -260l16 -118l17 113l43 265h99l-129 -712h-96l20 115zM41 884h32q4 -36 24.5 -51t58.5 -15q53 0 72 8q33 14 33 58h29q0 -57 -33.5 -91.5t-90.5 -34.5t-91 35t-34 91z" />
    <glyph glyph-name="cent" unicode="&#xa2;" horiz-adv-x="278" 
d="M70 99l-66 473h95l21 -190q16 -144 16 -256h4q0 126 15 236l23 210h95l-85 -606q-9 -63 -26.5 -78.5t-79.5 -15.5l-59 1v75h29q20 0 27 9t7 25t-7.5 59t-8.5 58zM18 778h32q4 -36 24.5 -51t58.5 -15q53 0 72 8q33 14 33 58h29q0 -57 -33.5 -91.5t-90.5 -34.5t-91 35
t-34 91z" />
    <glyph glyph-name="cent" unicode="&#x45e;" horiz-adv-x="278" 
d="M70 99l-66 473h95l21 -190q16 -144 16 -256h4q0 126 15 236l23 210h95l-85 -606q-9 -63 -26.5 -78.5t-79.5 -15.5l-59 1v75h29q20 0 27 9t7 25t-7.5 59t-8.5 58zM18 778h32q4 -36 24.5 -51t58.5 -15q53 0 72 8q33 14 33 58h29q0 -57 -33.5 -91.5t-90.5 -34.5t-91 35
t-34 91z" />
    <glyph glyph-name="sterling" unicode="&#xa3;" 
d="M196 712h106v-604q0 -64 -46 -96q-37 -26 -93 -26q-57 0 -94.5 37.5t-37.5 95.5v152h106v-149q0 -32 8 -41.5t22 -9.5t21.5 9t7.5 42v590z" />
    <glyph glyph-name="sterling" unicode="&#x408;" 
d="M196 712h106v-604q0 -64 -46 -96q-37 -26 -93 -26q-57 0 -94.5 37.5t-37.5 95.5v152h106v-149q0 -32 8 -41.5t22 -9.5t21.5 9t7.5 42v590z" />
    <glyph glyph-name="currency" unicode="&#xa4;" 
d="M25 282l32 31q-14 16 -21 37t-7 44q0 25 6.5 45.5t21.5 35.5l-32 32l28 29l32 -31q32 27 83 27q49 0 78 -27l34 31l29 -29l-31 -31q26 -31 26 -81t-26 -82l31 -31l-29 -29l-31 32q-31 -28 -81 -28q-53 0 -84 28l-31 -32zM168 303q37 0 62 27t25 65q0 36 -25.5 63.5
t-61.5 27.5q-38 0 -64 -27t-26 -65t25.5 -64.5t64.5 -26.5z" />
    <glyph glyph-name="yen" unicode="&#xa5;" horiz-adv-x="278" 
d="M137 619v-619h-106v712h135v108h106v-201h-135z" />
    <glyph glyph-name="yen" unicode="&#x490;" horiz-adv-x="278" 
d="M137 619v-619h-106v712h135v108h106v-201h-135z" />
    <glyph glyph-name="brokenbar" unicode="&#xa6;" horiz-adv-x="222" 
d="M67 0v266h88v-266h-88zM67 446v266h88v-266h-88z" />
    <glyph glyph-name="section" unicode="&#xa7;" 
d="M292 566h-88v44q0 23 -5 32q-8 14 -29 14q-22 0 -29 -12.5t-7 -35.5v-18q0 -59 45 -109q42 -42 85 -84q46 -55 46 -124q0 -38 -18.5 -72.5t-49.5 -54.5q27 -26 37.5 -58t10.5 -75q0 -74 -30.5 -107.5t-102.5 -33.5q-67 0 -96 33q-25 28 -25 85v62h88v-63q0 -25 7 -36
t30 -11q28 0 36 20q5 13 5 47q0 59 -46 109q-43 42 -86 85q-47 57 -47 131q0 79 69 120q-24 27 -35.5 60.5t-11.5 71.5q0 66 24 99q30 41 101 41q66 0 94 -28t28 -88v-44zM137 402q-26 -24 -26 -63q0 -40 28 -77q19 -24 61 -58q11 17 16.5 32.5t5.5 35.5q0 37 -43 85
q-21 22 -42 45z" />
    <glyph glyph-name="dieresis" unicode="&#xa8;" horiz-adv-x="278" 
d="M269 0h-238v712h236v-93h-130v-183h125v-93h-125v-250h132v-93zM114 787h-90v97h90v-97zM254 787h-90v97h90v-97z" />
    <glyph glyph-name="dieresis" unicode="&#x401;" horiz-adv-x="278" 
d="M269 0h-238v712h236v-93h-130v-183h125v-93h-125v-250h132v-93zM114 787h-90v97h90v-97zM254 787h-90v97h90v-97z" />
    <glyph glyph-name="copyright" unicode="&#xa9;" horiz-adv-x="800" 
d="M400 -14q-155 0 -264 102q-114 106 -114 268t113 268q109 102 265 102q155 0 264 -102q114 -106 114 -268t-113 -268q-109 -102 -265 -102zM112 356q0 -129 82.5 -213.5t205.5 -84.5q121 0 204.5 84.5t83.5 213.5t-83.5 213.5t-204.5 84.5t-204.5 -84.5t-83.5 -213.5z
M519 293h76q-12 -73 -62.5 -115.5t-118.5 -42.5q-96 0 -154.5 63t-58.5 160q0 98 56.5 160.5t153.5 62.5q72 0 121.5 -40t59.5 -113h-73q-8 37 -37 59t-70 22q-60 0 -92.5 -41.5t-32.5 -107.5q0 -65 34.5 -109t92.5 -44q43 0 71 23t34 63z" />
    <glyph glyph-name="ordfeminine" unicode="&#xaa;" 
d="M305 106q0 -65 -44 -95q-36 -25 -95 -25q-57 0 -93 25q-45 31 -45 95v500q0 64 44 95q36 25 94 25t94 -25q45 -31 45 -95v-154h-106v145q0 25 -7.5 34.5t-24.5 9.5q-18 0 -25.5 -8.5t-7.5 -35.5v-194h65v-85h-65v-203q0 -26 8 -35t25 -9t24.5 8.5t7.5 35.5v154h106v-163z
" />
    <glyph glyph-name="ordfeminine" unicode="&#x404;" 
d="M305 106q0 -65 -44 -95q-36 -25 -95 -25q-57 0 -93 25q-45 31 -45 95v500q0 64 44 95q36 25 94 25t94 -25q45 -31 45 -95v-154h-106v145q0 25 -7.5 34.5t-24.5 9.5q-18 0 -25.5 -8.5t-7.5 -35.5v-194h65v-85h-65v-203q0 -26 8 -35t25 -9t24.5 8.5t7.5 35.5v154h106v-163z
" />
    <glyph glyph-name="guillemotleft" unicode="&#xab;" 
d="M316 501v-122l-87 -93l87 -91v-127l-137 153v130zM153 501v-122l-87 -93l87 -91v-127l-137 153v130z" />
    <glyph glyph-name="logicalnot" unicode="&#xac;" horiz-adv-x="500" 
d="M407 154v190h-402v88h490v-278h-88z" />
    <glyph glyph-name="minus" unicode="&#xad;" horiz-adv-x="148" 
d="M-40 741h229v-64h-229v64z" />
    <glyph glyph-name="registered" unicode="&#xae;" horiz-adv-x="800" 
d="M400 -14q-155 0 -264 102q-114 106 -114 268t113 268q109 102 265 102q155 0 264 -102q114 -106 114 -268t-113 -268q-109 -102 -265 -102zM112 356q0 -129 82.5 -213.5t205.5 -84.5q121 0 204.5 84.5t83.5 213.5t-83.5 213.5t-204.5 84.5t-204.5 -84.5t-83.5 -213.5z
M328 333v-180h-73v419h158q158 0 158 -123q0 -54 -29.5 -80.5t-82.5 -32.5l115 -183h-80l-105 180h-61zM328 393h77q34 0 49 4q40 11 40 58q0 33 -28 47q-21 10 -60 10h-78v-119z" />
    <glyph glyph-name="macron" unicode="&#xaf;" horiz-adv-x="167" 
d="M136 0h-106v712h106v-712zM59 787h-90v97h90v-97zM199 787h-90v97h90v-97z" />
    <glyph glyph-name="macron" unicode="&#x407;" horiz-adv-x="167" 
d="M136 0h-106v712h106v-712zM59 787h-90v97h90v-97zM199 787h-90v97h90v-97z" />
    <glyph glyph-name="degree" unicode="&#xb0;" horiz-adv-x="400" 
d="M200 469q41 0 67 28t26 69t-26 69t-67 28t-67 -28t-26 -69t26 -69t67 -28zM200 420q-60 0 -103 43t-43 103t43 103t103 43t103 -43t43 -103t-43 -103t-103 -43z" />
    <glyph glyph-name="plusminus" unicode="&#xb1;" horiz-adv-x="500" 
d="M206 389v142h88v-142h201v-88h-201v-143h-88v143h-201v88h201zM5 41v88h490v-88h-490z" />
    <glyph glyph-name="twosuperior" unicode="&#xb2;" horiz-adv-x="167" 
d="M136 0h-106v712h106v-712z" />
    <glyph glyph-name="twosuperior" unicode="&#x406;" horiz-adv-x="167" 
d="M136 0h-106v712h106v-712z" />
    <glyph glyph-name="threesuperior" unicode="&#xb3;" horiz-adv-x="148" 
d="M122 0h-96v572h96v-572zM122 712v-102h-96v102h96z" />
    <glyph glyph-name="threesuperior" unicode="&#x456;" horiz-adv-x="148" 
d="M122 0h-96v572h96v-572zM122 712v-102h-96v102h96z" />
    <glyph glyph-name="acute" unicode="&#xb4;" horiz-adv-x="222" 
d="M116 494v-494h-96v572h113v108h89v-186h-106z" />
    <glyph glyph-name="acute" unicode="&#x491;" horiz-adv-x="222" 
d="M116 494v-494h-96v572h113v108h89v-186h-106z" />
    <glyph glyph-name="mu" unicode="&#xb5;" horiz-adv-x="278" 
d="M258 572v-572h-96v33q-19 -30 -46 -36v-125h-96v700h96v-462q0 -13 2 -24t19 -11q13 0 19 7t6 28v462h96z" />
    <glyph glyph-name="paragraph" unicode="&#xb6;" horiz-adv-x="600" 
d="M243 -179v526q-99 0 -157.5 49.5t-58.5 129.5q0 98 65 144q59 42 171 42h215h88v-70h-88v-821h-88v821h-59v-821h-88z" />
    <glyph glyph-name="periodcentered" unicode="&#xb7;" horiz-adv-x="166" 
d="M30 286q0 22 15.5 37.5t37.5 15.5t38 -15t16 -38q0 -22 -16 -38t-38 -16q-23 0 -38 15t-15 39z" />
    <glyph glyph-name="periodcentered" unicode="&#x2219;" horiz-adv-x="166" 
d="M30 286q0 22 15.5 37.5t37.5 15.5t38 -15t16 -38q0 -22 -16 -38t-38 -16q-23 0 -38 15t-15 39z" />
    <glyph glyph-name="cedilla" unicode="&#xb8;" horiz-adv-x="278" 
d="M162 225h96v-136q0 -44 -32 -70t-87 -26t-87 26t-32 70v394q0 44 32 70t87 26t87 -26t32 -70v-210h-142v-182q0 -18 5 -23t18 -5t18 5t5 23v134zM162 340v141q0 18 -5 23t-18 5t-18 -5t-5 -23v-141h46zM114 666h-90v97h90v-97zM254 666h-90v97h90v-97z" />
    <glyph glyph-name="cedilla" unicode="&#x451;" horiz-adv-x="278" 
d="M162 225h96v-136q0 -44 -32 -70t-87 -26t-87 26t-32 70v394q0 44 32 70t87 26t87 -26t32 -70v-210h-142v-182q0 -18 5 -23t18 -5t18 5t5 23v134zM162 340v141q0 18 -5 23t-18 5t-18 -5t-5 -23v-141h46zM114 666h-90v97h90v-97zM254 666h-90v97h90v-97z" />
    <glyph glyph-name="onesuperior" unicode="&#xb9;" horiz-adv-x="555" 
d="M454 660v-220q0 -20 17 -20q10 0 14.5 6.5t4.5 15.5v148v23v17q0 25 -2 38t-15 13q-8 0 -13.5 -4.5t-5.5 -16.5zM395 441v222q0 28 19.5 45.5t54.5 17.5q33 0 53 -10q27 -14 27 -46v-218q0 -39 -18 -58t-62 -19q-74 0 -74 66zM31 712h159l30 -205q10 -57 23 -134t20 -143
t7 -126h4v38q0 52 -1 104l-2 104v362h87v-712h-157l-50 356q-8 42 -15 96q-2 14 -17 156h-4l3 -92v-516h-87v712zM549 266h-154v67h154v-67z" />
    <glyph glyph-name="onesuperior" unicode="&#x2116;" horiz-adv-x="555" 
d="M454 660v-220q0 -20 17 -20q10 0 14.5 6.5t4.5 15.5v148v23v17q0 25 -2 38t-15 13q-8 0 -13.5 -4.5t-5.5 -16.5zM395 441v222q0 28 19.5 45.5t54.5 17.5q33 0 53 -10q27 -14 27 -46v-218q0 -39 -18 -58t-62 -19q-74 0 -74 66zM31 712h159l30 -205q10 -57 23 -134t20 -143
t7 -126h4v38q0 52 -1 104l-2 104v362h87v-712h-157l-50 356q-8 42 -15 96q-2 14 -17 156h-4l3 -92v-516h-87v712zM549 266h-154v67h154v-67z" />
    <glyph glyph-name="ordmasculine" unicode="&#xba;" horiz-adv-x="278" 
d="M258 89q0 -44 -32 -70t-87 -26t-87 26t-32 70v394q0 44 32 70t87 26t87 -26t32 -70v-115h-96v106q0 21 -6 28t-17 7t-17 -7t-6 -28v-148h46v-72h-46v-163q0 -18 5 -23t18 -5t18 5t5 23v134h96v-136z" />
    <glyph glyph-name="ordmasculine" unicode="&#x454;" horiz-adv-x="278" 
d="M258 89q0 -44 -32 -70t-87 -26t-87 26t-32 70v394q0 44 32 70t87 26t87 -26t32 -70v-115h-96v106q0 21 -6 28t-17 7t-17 -7t-6 -28v-148h46v-72h-46v-163q0 -18 5 -23t18 -5t18 5t5 23v134h96v-136z" />
    <glyph glyph-name="guillemotright" unicode="&#xbb;" 
d="M16 379v122l137 -150v-130l-137 -153v127l87 91zM179 379v122l137 -150v-130l-137 -153v127l87 91z" />
    <glyph glyph-name="onequarter" unicode="&#xbc;" horiz-adv-x="148" 
d="M-17 -128v76q24 0 33.5 8.5t9.5 31.5v584h96v-581q0 -75 -20 -97t-63 -22h-56zM122 712v-102h-96v102h96z" />
    <glyph glyph-name="onequarter" unicode="&#x458;" horiz-adv-x="148" 
d="M-17 -128v76q24 0 33.5 8.5t9.5 31.5v584h96v-581q0 -75 -20 -97t-63 -22h-56zM122 712v-102h-96v102h96z" />
    <glyph glyph-name="onehalf" unicode="&#xbd;" 
d="M134 270v-155q0 -26 8 -35t25 -9t24.5 8.5t7.5 35.5v75q0 42 -42.5 96.5t-83.5 105.5q-45 63 -45 112v102q0 64 44 95q36 25 94 25t94 -25q45 -31 45 -95v-150h-106v141q0 25 -7.5 34.5t-24.5 9.5q-18 0 -25.5 -8.5t-7.5 -35.5v-88q0 -21 44 -78l82 -106q45 -63 45 -93
v-126q0 -65 -44 -95q-36 -25 -95 -25q-57 0 -93 25q-45 31 -45 95v164h106z" />
    <glyph glyph-name="onehalf" unicode="&#x405;" 
d="M134 270v-155q0 -26 8 -35t25 -9t24.5 8.5t7.5 35.5v75q0 42 -42.5 96.5t-83.5 105.5q-45 63 -45 112v102q0 64 44 95q36 25 94 25t94 -25q45 -31 45 -95v-150h-106v141q0 25 -7.5 34.5t-24.5 9.5q-18 0 -25.5 -8.5t-7.5 -35.5v-88q0 -21 44 -78l82 -106q45 -63 45 -93
v-126q0 -65 -44 -95q-36 -25 -95 -25q-57 0 -93 25q-45 31 -45 95v164h106z" />
    <glyph glyph-name="threequarters" unicode="&#xbe;" horiz-adv-x="278" 
d="M20 223h96v-125q0 -21 6 -28t17 -7t17 7t6 28v59q0 46 -71 125t-71 124v77q0 44 32 70t87 26t87 -26t32 -70v-118h-96v109q0 21 -6 28t-17 7t-17 -7t-6 -28v-47q0 -26 71 -101t71 -121v-116q0 -44 -32 -70t-87 -26t-87 26t-32 70v134z" />
    <glyph glyph-name="threequarters" unicode="&#x455;" horiz-adv-x="278" 
d="M20 223h96v-125q0 -21 6 -28t17 -7t17 7t6 28v59q0 46 -71 125t-71 124v77q0 44 32 70t87 26t87 -26t32 -70v-118h-96v109q0 21 -6 28t-17 7t-17 -7t-6 -28v-47q0 -26 71 -101t71 -121v-116q0 -44 -32 -70t-87 -26t-87 26t-32 70v134z" />
    <glyph glyph-name="questiondown" unicode="&#xbf;" horiz-adv-x="148" 
d="M122 0h-96v572h96v-572zM49 666h-90v97h90v-97zM189 666h-90v97h90v-97z" />
    <glyph glyph-name="questiondown" unicode="&#x457;" horiz-adv-x="148" 
d="M122 0h-96v572h96v-572zM49 666h-90v97h90v-97zM189 666h-90v97h90v-97z" />
    <glyph glyph-name="Agrave" unicode="&#xc0;" 
d="M6 0l81 712h159l81 -712h-107l-20 193h-75l-23 -193h-96zM135 286h55l-22 296h-7z" />
    <glyph glyph-name="Agrave" unicode="&#x410;" 
d="M6 0l81 712h159l81 -712h-107l-20 193h-75l-23 -193h-96zM135 286h55l-22 296h-7z" />
    <glyph glyph-name="Aacute" unicode="&#xc1;" 
d="M298 712v-93h-164v-202q90 0 128 -29q43 -33 43 -117v-132q0 -72 -39.5 -105.5t-126.5 -33.5h-111v712h270zM134 85q37 0 48 9q17 13 17 59v147q-2 25 -22.5 28.5t-42.5 3.5v-247z" />
    <glyph glyph-name="Aacute" unicode="&#x411;" 
d="M298 712v-93h-164v-202q90 0 128 -29q43 -33 43 -117v-132q0 -72 -39.5 -105.5t-126.5 -33.5h-111v712h270zM134 85q37 0 48 9q17 13 17 59v147q-2 25 -22.5 28.5t-42.5 3.5v-247z" />
    <glyph glyph-name="Acircumflex" unicode="&#xc2;" 
d="M28 0v712h150q62 0 93 -34t31 -94v-113q0 -43 -26 -65q-22 -18 -72 -30q56 -12 76 -32q25 -24 25 -81v-113q0 -68 -30 -107q-33 -43 -98 -43h-149zM134 631v-214h24q21 0 29.5 11.5t8.5 41.5v108q0 31 -8 42t-30 11h-24zM134 332v-247h21q24 0 34 12t10 44v135
q0 32 -10 44t-34 12h-21z" />
    <glyph glyph-name="Acircumflex" unicode="&#x412;" 
d="M28 0v712h150q62 0 93 -34t31 -94v-113q0 -43 -26 -65q-22 -18 -72 -30q56 -12 76 -32q25 -24 25 -81v-113q0 -68 -30 -107q-33 -43 -98 -43h-149zM134 631v-214h24q21 0 29.5 11.5t8.5 41.5v108q0 31 -8 42t-30 11h-24zM134 332v-247h21q24 0 34 12t10 44v135
q0 32 -10 44t-34 12h-21z" />
    <glyph glyph-name="Atilde" unicode="&#xc3;" horiz-adv-x="278" 
d="M137 0h-106v712h241v-93h-135v-619z" />
    <glyph glyph-name="Atilde" unicode="&#x413;" horiz-adv-x="278" 
d="M137 0h-106v712h241v-93h-135v-619z" />
    <glyph glyph-name="Adieresis" unicode="&#xc4;" 
d="M14 93q8 3 15 23.5t7 45.5v550h266v-619h31v-201h-106v108h-121v-108h-106v201h14zM196 93v526h-59v-463q0 -19 -4 -34.5t-11 -28.5h74z" />
    <glyph glyph-name="Adieresis" unicode="&#x414;" 
d="M14 93q8 3 15 23.5t7 45.5v550h266v-619h31v-201h-106v108h-121v-108h-106v201h14zM196 93v526h-59v-463q0 -19 -4 -34.5t-11 -28.5h74z" />
    <glyph glyph-name="Aring" unicode="&#xc5;" horiz-adv-x="278" 
d="M269 0h-238v712h236v-93h-130v-183h125v-93h-125v-250h132v-93z" />
    <glyph glyph-name="Aring" unicode="&#x415;" horiz-adv-x="278" 
d="M269 0h-238v712h236v-93h-130v-183h125v-93h-125v-250h132v-93z" />
    <glyph glyph-name="AE" unicode="&#xc6;" horiz-adv-x="481" 
d="M295 712v-321l77 321h103l-81 -325l83 -387h-109l-70 361l-3 -361h-106v361l-73 -361h-109l76 387l-74 325h103l74 -321l3 321h106z" />
    <glyph glyph-name="AE" unicode="&#x416;" horiz-adv-x="481" 
d="M295 712v-321l77 321h103l-81 -325l83 -387h-109l-70 361l-3 -361h-106v361l-73 -361h-109l76 387l-74 325h103l74 -321l3 321h106z" />
    <glyph glyph-name="Ccedilla" unicode="&#xc7;" 
d="M305 466q0 -39 -15 -62q-20 -31 -69 -42v-4q54 -18 71 -43q13 -19 13 -59v-150q0 -64 -44 -95q-36 -25 -94 -25t-94 25q-45 31 -45 95v163h106v-154q0 -25 7.5 -34.5t24.5 -9.5q18 0 25.5 8.5t7.5 35.5v146q0 30 -12.5 43.5t-36.5 13.5h-16v85q38 0 51.5 17.5t13.5 52.5
v124q0 26 -8 35t-25 9t-24.5 -8.5t-7.5 -35.5v-145h-106v154q0 65 44 95q36 25 95 25q57 0 93 -25q45 -31 45 -95v-140z" />
    <glyph glyph-name="Ccedilla" unicode="&#x417;" 
d="M305 466q0 -39 -15 -62q-20 -31 -69 -42v-4q54 -18 71 -43q13 -19 13 -59v-150q0 -64 -44 -95q-36 -25 -94 -25t-94 25q-45 31 -45 95v163h106v-154q0 -25 7.5 -34.5t24.5 -9.5q18 0 25.5 8.5t7.5 35.5v146q0 30 -12.5 43.5t-36.5 13.5h-16v85q38 0 51.5 17.5t13.5 52.5
v124q0 26 -8 35t-25 9t-24.5 -8.5t-7.5 -35.5v-145h-106v154q0 65 44 95q36 25 95 25q57 0 93 -25q45 -31 45 -95v-140z" />
    <glyph glyph-name="Egrave" unicode="&#xc8;" horiz-adv-x="389" 
d="M358 712v-712h-90v516l3 92h-4l-79 -608h-157v712h90v-484l-3 -124h4l77 608h159z" />
    <glyph glyph-name="Egrave" unicode="&#x418;" horiz-adv-x="389" 
d="M358 712v-712h-90v516l3 92h-4l-79 -608h-157v712h90v-484l-3 -124h4l77 608h159z" />
    <glyph glyph-name="Eacute" unicode="&#xc9;" horiz-adv-x="389" 
d="M69 884h32q4 -36 24.5 -51t58.5 -15q53 0 72 8q33 14 33 58h29q0 -57 -33.5 -91.5t-90.5 -34.5t-91 35t-34 91zM358 712v-712h-90v516l3 92h-4l-79 -608h-157v712h90v-484l-3 -124h4l77 608h159z" />
    <glyph glyph-name="Eacute" unicode="&#x419;" horiz-adv-x="389" 
d="M69 884h32q4 -36 24.5 -51t58.5 -15q53 0 72 8q33 14 33 58h29q0 -57 -33.5 -91.5t-90.5 -34.5t-91 35t-34 91zM358 712v-712h-90v516l3 92h-4l-79 -608h-157v712h90v-484l-3 -124h4l77 608h159z" />
    <glyph glyph-name="Ecircumflex" unicode="&#xca;" 
d="M137 0h-106v712h106v-321l84 321h103l-81 -325l83 -387h-109l-77 361z" />
    <glyph glyph-name="Ecircumflex" unicode="&#x41a;" 
d="M137 0h-106v712h106v-321l84 321h103l-81 -325l83 -387h-109l-77 361z" />
    <glyph glyph-name="Edieresis" unicode="&#xcb;" 
d="M137 619v-483q0 -150 -137 -150v105q16 0 24 7q12 11 12 44v570h266v-712h-106v619h-59z" />
    <glyph glyph-name="Edieresis" unicode="&#x41b;" 
d="M137 619v-483q0 -150 -137 -150v105q16 0 24 7q12 11 12 44v570h266v-712h-106v619h-59z" />
    <glyph glyph-name="Igrave" unicode="&#xcc;" horiz-adv-x="481" 
d="M289 0h-97l-38 343l-25 238h-4q0 -22 2 -79.5t2 -59.5v-442h-93v712h157l34 -294q9 -64 13 -121t4 -101h5q0 126 10 221l29 295h157v-712h-93v328q0 43 2 142.5t2 110.5h-4l-26 -274z" />
    <glyph glyph-name="Igrave" unicode="&#x41c;" horiz-adv-x="481" 
d="M289 0h-97l-38 343l-25 238h-4q0 -22 2 -79.5t2 -59.5v-442h-93v712h157l34 -294q9 -64 13 -121t4 -101h5q0 126 10 221l29 295h157v-712h-93v328q0 43 2 142.5t2 110.5h-4l-26 -274z" />
    <glyph glyph-name="Iacute" unicode="&#xcd;" 
d="M137 0h-106v712h106v-273h59v273h106v-712h-106v346h-59v-346z" />
    <glyph glyph-name="Iacute" unicode="&#x41d;" 
d="M137 0h-106v712h106v-273h59v273h106v-712h-106v346h-59v-346z" />
    <glyph glyph-name="Icircumflex" unicode="&#xce;" 
d="M28 106v500q0 64 44 95q36 25 94 25t94 -25q45 -31 45 -95v-500q0 -65 -44 -95q-36 -25 -95 -25q-57 0 -93 25q-45 31 -45 95zM134 597v-482q0 -26 8 -35t25 -9t24.5 8.5t7.5 35.5v482q0 25 -7.5 34.5t-24.5 9.5q-18 0 -25.5 -8.5t-7.5 -35.5z" />
    <glyph glyph-name="Icircumflex" unicode="&#x41e;" 
d="M28 106v500q0 64 44 95q36 25 94 25t94 -25q45 -31 45 -95v-500q0 -65 -44 -95q-36 -25 -95 -25q-57 0 -93 25q-45 31 -45 95zM134 597v-482q0 -26 8 -35t25 -9t24.5 8.5t7.5 35.5v482q0 25 -7.5 34.5t-24.5 9.5q-18 0 -25.5 -8.5t-7.5 -35.5z" />
    <glyph glyph-name="Idieresis" unicode="&#xcf;" 
d="M137 0h-106v712h271v-712h-106v619h-59v-619z" />
    <glyph glyph-name="Idieresis" unicode="&#x41f;" 
d="M137 0h-106v712h271v-712h-106v619h-59v-619z" />
    <glyph glyph-name="Eth" unicode="&#xd0;" 
d="M134 0h-106v712h111q88 0 127 -33t39 -106v-154q0 -83 -43 -116q-39 -30 -128 -30v-273zM134 627v-269h12q24 0 37.5 6t15.5 26v169q0 46 -16 59q-11 9 -49 9z" />
    <glyph glyph-name="Eth" unicode="&#x420;" 
d="M134 0h-106v712h111q88 0 127 -33t39 -106v-154q0 -83 -43 -116q-39 -30 -128 -30v-273zM134 627v-269h12q24 0 37.5 6t15.5 26v169q0 46 -16 59q-11 9 -49 9z" />
    <glyph glyph-name="Ntilde" unicode="&#xd1;" 
d="M305 452h-106v145q0 25 -7.5 34.5t-24.5 9.5q-18 0 -25.5 -8.5t-7.5 -35.5v-482q0 -26 8 -35t25 -9t24.5 8.5t7.5 35.5v154h106v-163q0 -65 -44 -95q-36 -25 -95 -25q-57 0 -93 25q-45 31 -45 95v500q0 64 44 95q36 25 94 25t94 -25q45 -31 45 -95v-154z" />
    <glyph glyph-name="Ntilde" unicode="&#x421;" 
d="M305 452h-106v145q0 25 -7.5 34.5t-24.5 9.5q-18 0 -25.5 -8.5t-7.5 -35.5v-482q0 -26 8 -35t25 -9t24.5 8.5t7.5 35.5v154h106v-163q0 -65 -44 -95q-36 -25 -95 -25q-57 0 -93 25q-45 31 -45 95v500q0 64 44 95q36 25 94 25t94 -25q45 -31 45 -95v-154z" />
    <glyph glyph-name="Ograve" unicode="&#xd2;" horiz-adv-x="315" 
d="M12 712h291v-93h-92v-619h-106v619h-93v93z" />
    <glyph glyph-name="Ograve" unicode="&#x422;" horiz-adv-x="315" 
d="M12 712h291v-93h-92v-619h-106v619h-93v93z" />
    <glyph glyph-name="Oacute" unicode="&#xd3;" 
d="M4 712h109l40 -260l16 -118l17 113l43 265h99l-129 -712h-96l20 115z" />
    <glyph glyph-name="Oacute" unicode="&#x423;" 
d="M4 712h109l40 -260l16 -118l17 113l43 265h99l-129 -712h-96l20 115z" />
    <glyph glyph-name="Ocircumflex" unicode="&#xd4;" horiz-adv-x="500" 
d="M303 712v-76q91 0 131 -33t40 -106v-264q0 -83 -43 -116q-39 -30 -128 -30v-87h-106v87q-90 0 -128 29q-43 33 -43 117v264q0 73 40 106t131 33v76h106zM368 204v279q0 46 -16 59q-11 9 -49 9v-379h12q24 0 37.5 6t15.5 26zM132 204q2 -25 31 -30q12 -2 34 -2v379
q-37 0 -48 -9q-17 -13 -17 -59v-279z" />
    <glyph glyph-name="Ocircumflex" unicode="&#x424;" horiz-adv-x="500" 
d="M303 712v-76q91 0 131 -33t40 -106v-264q0 -83 -43 -116q-39 -30 -128 -30v-87h-106v87q-90 0 -128 29q-43 33 -43 117v264q0 73 40 106t131 33v76h106zM368 204v279q0 46 -16 59q-11 9 -49 9v-379h12q24 0 37.5 6t15.5 26zM132 204q2 -25 31 -30q12 -2 34 -2v379
q-37 0 -48 -9q-17 -13 -17 -59v-279z" />
    <glyph glyph-name="Otilde" unicode="&#xd5;" 
d="M100 0h-99l89 360l-81 352h110q24 -114 35 -174.5t15 -106.5q2 54 23 135q15 54 22 80l17 66h99l-86 -325l88 -387h-109l-38 172q-7 34 -16 90q-2 18 -7 49q0 -66 -21 -150t-41 -161z" />
    <glyph glyph-name="Otilde" unicode="&#x425;" 
d="M100 0h-99l89 360l-81 352h110q24 -114 35 -174.5t15 -106.5q2 54 23 135q15 54 22 80l17 66h99l-86 -325l88 -387h-109l-38 172q-7 34 -16 90q-2 18 -7 49q0 -66 -21 -150t-41 -161z" />
    <glyph glyph-name="Odieresis" unicode="&#xd6;" 
d="M227 0h-196v712h106v-619h59v619h106v-619h31v-201h-106v108z" />
    <glyph glyph-name="Odieresis" unicode="&#x426;" 
d="M227 0h-196v712h106v-619h59v619h106v-619h31v-201h-106v108z" />
    <glyph glyph-name="multiply" unicode="&#xd7;" 
d="M31 439v273h106v-273q0 -21 24 -21q20 0 35 21v273h106v-712h-106v346q-29 -23 -72 -23q-48 0 -70.5 32t-22.5 84z" />
    <glyph glyph-name="multiply" unicode="&#x427;" 
d="M31 439v273h106v-273q0 -21 24 -21q20 0 35 21v273h106v-712h-106v346q-29 -23 -72 -23q-48 0 -70.5 32t-22.5 84z" />
    <glyph glyph-name="Oslash" unicode="&#xd8;" horiz-adv-x="500" 
d="M32 0v712h106v-619h59v619h106v-619h59v619h106v-712h-436z" />
    <glyph glyph-name="Oslash" unicode="&#x428;" horiz-adv-x="500" 
d="M32 0v712h106v-619h59v619h106v-619h59v619h106v-712h-436z" />
    <glyph glyph-name="Ugrave" unicode="&#xd9;" horiz-adv-x="500" 
d="M393 0h-361v712h106v-619h59v619h106v-619h59v619h106v-619h31v-201h-106v108z" />
    <glyph glyph-name="Ugrave" unicode="&#x429;" horiz-adv-x="500" 
d="M393 0h-361v712h106v-619h59v619h106v-619h59v619h106v-619h31v-201h-106v108z" />
    <glyph glyph-name="Uacute" unicode="&#xda;" horiz-adv-x="370" 
d="M65 619h-53v93h159v-273q90 0 128 -29q43 -33 43 -117v-154q0 -72 -39.5 -105.5t-126.5 -33.5h-111v619zM171 85q37 0 48 9q17 13 17 59v169q-2 25 -22.5 28.5t-42.5 3.5v-269z" />
    <glyph glyph-name="Uacute" unicode="&#x42a;" horiz-adv-x="370" 
d="M65 619h-53v93h159v-273q90 0 128 -29q43 -33 43 -117v-154q0 -72 -39.5 -105.5t-126.5 -33.5h-111v619zM171 85q37 0 48 9q17 13 17 59v169q-2 25 -22.5 28.5t-42.5 3.5v-269z" />
    <glyph glyph-name="Ucircumflex" unicode="&#xdb;" horiz-adv-x="500" 
d="M134 712v-273q90 0 128 -29q43 -33 43 -117v-154q0 -72 -39.5 -105.5t-126.5 -33.5h-111v712h106zM469 0h-106v712h106v-712zM134 85q37 0 48 9q17 13 17 59v169q-2 25 -22.5 28.5t-42.5 3.5v-269z" />
    <glyph glyph-name="Ucircumflex" unicode="&#x42b;" horiz-adv-x="500" 
d="M134 712v-273q90 0 128 -29q43 -33 43 -117v-154q0 -72 -39.5 -105.5t-126.5 -33.5h-111v712h106zM469 0h-106v712h106v-712zM134 85q37 0 48 9q17 13 17 59v169q-2 25 -22.5 28.5t-42.5 3.5v-269z" />
    <glyph glyph-name="Udieresis" unicode="&#xdc;" 
d="M134 712v-273q90 0 128 -29q43 -33 43 -117v-154q0 -72 -39.5 -105.5t-126.5 -33.5h-111v712h106zM134 85q37 0 48 9q17 13 17 59v169q-2 25 -22.5 28.5t-42.5 3.5v-269z" />
    <glyph glyph-name="Udieresis" unicode="&#x42c;" 
d="M134 712v-273q90 0 128 -29q43 -33 43 -117v-154q0 -72 -39.5 -105.5t-126.5 -33.5h-111v712h106zM134 85q37 0 48 9q17 13 17 59v169q-2 25 -22.5 28.5t-42.5 3.5v-269z" />
    <glyph glyph-name="Yacute" unicode="&#xdd;" 
d="M199 403v194q0 26 -8 35t-25 9t-24.5 -8.5t-7.5 -35.5v-145h-106v154q0 65 44 95q36 25 95 25q57 0 93 -25q45 -31 45 -95v-500q0 -64 -44 -95q-36 -25 -94 -25t-94 25q-45 31 -45 95v163h106v-154q0 -25 7.5 -34.5t24.5 -9.5q18 0 25.5 8.5t7.5 35.5v203h-65v85h65z" />
    <glyph glyph-name="Yacute" unicode="&#x42d;" 
d="M199 403v194q0 26 -8 35t-25 9t-24.5 -8.5t-7.5 -35.5v-145h-106v154q0 65 44 95q36 25 95 25q57 0 93 -25q45 -31 45 -95v-500q0 -64 -44 -95q-36 -25 -94 -25t-94 25q-45 31 -45 95v163h106v-154q0 -25 7.5 -34.5t24.5 -9.5q18 0 25.5 8.5t7.5 35.5v203h-65v85h65z" />
    <glyph glyph-name="Thorn" unicode="&#xde;" horiz-adv-x="500" 
d="M192 346h-55v-346h-106v712h106v-273h55v167q0 64 44 95q36 25 94 25t94 -25q45 -31 45 -95v-500q0 -65 -44 -95q-36 -25 -95 -25q-57 0 -93 25q-45 31 -45 95v240zM298 597v-482q0 -26 8 -35t25 -9t24.5 8.5t7.5 35.5v482q0 25 -7.5 34.5t-24.5 9.5q-18 0 -25.5 -8.5
t-7.5 -35.5z" />
    <glyph glyph-name="Thorn" unicode="&#x42e;" horiz-adv-x="500" 
d="M192 346h-55v-346h-106v712h106v-273h55v167q0 64 44 95q36 25 94 25t94 -25q45 -31 45 -95v-500q0 -65 -44 -95q-36 -25 -95 -25q-57 0 -93 25q-45 31 -45 95v240zM298 597v-482q0 -26 8 -35t25 -9t24.5 8.5t7.5 35.5v482q0 25 -7.5 34.5t-24.5 9.5q-18 0 -25.5 -8.5
t-7.5 -35.5z" />
    <glyph glyph-name="germandbls" unicode="&#xdf;" 
d="M199 0v330q-37 0 -51 -12t-14 -46v-50t1 -51q0 -59 -2.5 -93.5t-11.5 -77.5h-106q11 66 14 129t3 164q0 34 19 54q24 26 82 33q-62 8 -86 39q-19 24 -19 70v101q0 66 35 94t102 28h140v-712h-106zM199 627h-25q-20 0 -30 -7.5t-10 -27.5v-129q0 -23 9 -34.5t36 -11.5h20
v210z" />
    <glyph glyph-name="germandbls" unicode="&#x42f;" 
d="M199 0v330q-37 0 -51 -12t-14 -46v-50t1 -51q0 -59 -2.5 -93.5t-11.5 -77.5h-106q11 66 14 129t3 164q0 34 19 54q24 26 82 33q-62 8 -86 39q-19 24 -19 70v101q0 66 35 94t102 28h140v-712h-106zM199 627h-25q-20 0 -30 -7.5t-10 -27.5v-129q0 -23 9 -34.5t36 -11.5h20
v210z" />
    <glyph glyph-name="agrave" unicode="&#xe0;" horiz-adv-x="278" 
d="M258 483v-483h-90q-3 7 -4.5 17t-1.5 22q-17 -25 -33 -35.5t-44 -10.5q-65 0 -65 66v192q0 54 69.5 89t69.5 112v16q0 17 -3.5 29t-15.5 12q-14 0 -18.5 -13.5t-4.5 -33.5v-19v-75h-97v115q0 44 32 70t87 26t87 -26t32 -70zM162 98v198q-24 -14 -33 -24q-13 -14 -13 -34
v-144q3 -19 23 -19q23 4 23 23z" />
    <glyph glyph-name="agrave" unicode="&#x430;" horiz-adv-x="278" 
d="M258 483v-483h-90q-3 7 -4.5 17t-1.5 22q-17 -25 -33 -35.5t-44 -10.5q-65 0 -65 66v192q0 54 69.5 89t69.5 112v16q0 17 -3.5 29t-15.5 12q-14 0 -18.5 -13.5t-4.5 -33.5v-19v-75h-97v115q0 44 32 70t87 26t87 -26t32 -70zM162 98v198q-24 -14 -33 -24q-13 -14 -13 -34
v-144q3 -19 23 -19q23 4 23 23z" />
    <glyph glyph-name="aacute" unicode="&#xe1;" horiz-adv-x="278" 
d="M20 494q0 111 14 164q22 83 84 101q23 6 46 13q28 10 28 28h66q0 -62 -22 -89.5t-78 -39.5q-36 -8 -50.5 -43.5t-14.5 -95.5q9 21 28 34t41 13q52 0 74 -24.5t22 -71.5v-394q0 -44 -32 -70t-87 -26t-87 26t-32 70v405zM162 91v390q0 18 -5 23t-18 5t-18 -5t-5 -23v-390
q0 -18 5 -23t18 -5t18 5t5 23z" />
    <glyph glyph-name="aacute" unicode="&#x431;" horiz-adv-x="278" 
d="M20 494q0 111 14 164q22 83 84 101q23 6 46 13q28 10 28 28h66q0 -62 -22 -89.5t-78 -39.5q-36 -8 -50.5 -43.5t-14.5 -95.5q9 21 28 34t41 13q52 0 74 -24.5t22 -71.5v-394q0 -44 -32 -70t-87 -26t-87 26t-32 70v405zM162 91v390q0 18 -5 23t-18 5t-18 -5t-5 -23v-390
q0 -18 5 -23t18 -5t18 5t5 23z" />
    <glyph glyph-name="acircumflex" unicode="&#xe2;" horiz-adv-x="278" 
d="M20 0v572h127q54 0 81.5 -27.5t27.5 -76.5v-90q0 -36 -23 -54q-19 -15 -64 -24l2 2q47 -8 65 -24q23 -20 23 -66v-90q0 -55 -28 -88.5t-85 -33.5h-126zM116 337h13q18 0 24.5 7.5t6.5 32.5v86q0 25 -6.5 32.5t-24.5 7.5h-13v-166zM116 72h11q21 0 28.5 7.5t7.5 34.5v108
q0 25 -8 34t-28 9h-11v-193z" />
    <glyph glyph-name="acircumflex" unicode="&#x432;" horiz-adv-x="278" 
d="M20 0v572h127q54 0 81.5 -27.5t27.5 -76.5v-90q0 -36 -23 -54q-19 -15 -64 -24l2 2q47 -8 65 -24q23 -20 23 -66v-90q0 -55 -28 -88.5t-85 -33.5h-126zM116 337h13q18 0 24.5 7.5t6.5 32.5v86q0 25 -6.5 32.5t-24.5 7.5h-13v-166zM116 72h11q21 0 28.5 7.5t7.5 34.5v108
q0 25 -8 34t-28 9h-11v-193z" />
    <glyph glyph-name="atilde" unicode="&#xe3;" horiz-adv-x="222" 
d="M116 0h-96v572h202v-78h-106v-494z" />
    <glyph glyph-name="atilde" unicode="&#x433;" horiz-adv-x="222" 
d="M116 0h-96v572h202v-78h-106v-494z" />
    <glyph glyph-name="adieresis" unicode="&#xe4;" horiz-adv-x="278" 
d="M24 151v421h234v-494h20v-186h-89v108h-110v-108h-86v186h13q18 32 18 73zM162 494h-46v-348q0 -18 -4 -34.5t-11 -33.5h61v416z" />
    <glyph glyph-name="adieresis" unicode="&#x434;" horiz-adv-x="278" 
d="M24 151v421h234v-494h20v-186h-89v108h-110v-108h-86v186h13q18 32 18 73zM162 494h-46v-348q0 -18 -4 -34.5t-11 -33.5h61v416z" />
    <glyph glyph-name="aring" unicode="&#xe5;" horiz-adv-x="278" 
d="M162 225h96v-136q0 -44 -32 -70t-87 -26t-87 26t-32 70v394q0 44 32 70t87 26t87 -26t32 -70v-210h-142v-182q0 -18 5 -23t18 -5t18 5t5 23v134zM162 340v141q0 18 -5 23t-18 5t-18 -5t-5 -23v-141h46z" />
    <glyph glyph-name="aring" unicode="&#x435;" horiz-adv-x="278" 
d="M162 225h96v-136q0 -44 -32 -70t-87 -26t-87 26t-32 70v394q0 44 32 70t87 26t87 -26t32 -70v-210h-142v-182q0 -18 5 -23t18 -5t18 5t5 23v134zM162 340v141q0 18 -5 23t-18 5t-18 -5t-5 -23v-141h46z" />
    <glyph glyph-name="ae" unicode="&#xe6;" horiz-adv-x="405" 
d="M252 572v-256l63 256h93l-71 -261l72 -311h-98l-61 290l2 -2v-288h-96v290l2 -2l-61 -288h-98l66 311l-64 261h92l65 -258l-2 2v256h96z" />
    <glyph glyph-name="ae" unicode="&#x436;" horiz-adv-x="405" 
d="M252 572v-256l63 256h93l-71 -261l72 -311h-98l-61 290l2 -2v-288h-96v290l2 -2l-61 -288h-98l66 311l-64 261h92l65 -258l-2 2v256h96z" />
    <glyph glyph-name="ccedilla" unicode="&#xe7;" horiz-adv-x="278" 
d="M187 291q42 -10 59 -34q14 -19 14 -51v-117q0 -53 -39 -78q-31 -20 -82 -20q-50 0 -82 20q-40 25 -40 78v130h96v-123q0 -20 5.5 -26.5t19.5 -6.5q15 0 21 6t6 27v114q0 26 -6.5 35t-26.5 9h-16v72h16q22 0 27.5 11.5t5.5 41.5v97q0 21 -6 27t-21 6q-14 0 -19.5 -6
t-5.5 -27v-115h-96v122q0 53 39 78q31 20 83 20q50 0 81 -20q40 -25 40 -78v-109q0 -30 -14 -50q-18 -26 -59 -33z" />
    <glyph glyph-name="ccedilla" unicode="&#x437;" horiz-adv-x="278" 
d="M187 291q42 -10 59 -34q14 -19 14 -51v-117q0 -53 -39 -78q-31 -20 -82 -20q-50 0 -82 20q-40 25 -40 78v130h96v-123q0 -20 5.5 -26.5t19.5 -6.5q15 0 21 6t6 27v114q0 26 -6.5 35t-26.5 9h-16v72h16q22 0 27.5 11.5t5.5 41.5v97q0 21 -6 27t-21 6q-14 0 -19.5 -6
t-5.5 -27v-115h-96v122q0 53 39 78q31 20 83 20q50 0 81 -20q40 -25 40 -78v-109q0 -30 -14 -50q-18 -26 -59 -33z" />
    <glyph glyph-name="egrave" unicode="&#xe8;" horiz-adv-x="314" 
d="M294 572v-572h-82v394l4 93l-59 -487h-137v572h81v-368l-4 -119l58 487h139z" />
    <glyph glyph-name="egrave" unicode="&#x438;" horiz-adv-x="314" 
d="M294 572v-572h-82v394l4 93l-59 -487h-137v572h81v-368l-4 -119l58 487h139z" />
    <glyph glyph-name="eacute" unicode="&#xe9;" horiz-adv-x="314" 
d="M31 778h32q4 -36 24.5 -51t58.5 -15q53 0 72 8q33 14 33 58h29q0 -57 -33.5 -91.5t-90.5 -34.5t-91 35t-34 91zM294 572v-572h-82v394l4 93l-59 -487h-137v572h81v-368l-4 -119l58 487h139z" />
    <glyph glyph-name="eacute" unicode="&#x439;" horiz-adv-x="314" 
d="M31 778h32q4 -36 24.5 -51t58.5 -15q53 0 72 8q33 14 33 58h29q0 -57 -33.5 -91.5t-90.5 -34.5t-91 35t-34 91zM294 572v-572h-82v394l4 93l-59 -487h-137v572h81v-368l-4 -119l58 487h139z" />
    <glyph glyph-name="ecircumflex" unicode="&#xea;" horiz-adv-x="278" 
d="M118 0h-96v572h96v-263h4l52 263h96l-55 -258l58 -314h-98l-53 301h-4v-301z" />
    <glyph glyph-name="ecircumflex" unicode="&#x43a;" horiz-adv-x="278" 
d="M118 0h-96v572h96v-263h4l52 263h96l-55 -258l58 -314h-98l-53 301h-4v-301z" />
    <glyph glyph-name="edieresis" unicode="&#xeb;" horiz-adv-x="278" 
d="M116 110q0 -59 -32 -90t-89 -31l-2 88q16 0 21 4q10 8 10 34v457h234v-572h-96v494h-46v-384z" />
    <glyph glyph-name="edieresis" unicode="&#x43b;" horiz-adv-x="278" 
d="M116 110q0 -59 -32 -90t-89 -31l-2 88q16 0 21 4q10 8 10 34v457h234v-572h-96v494h-46v-384z" />
    <glyph glyph-name="igrave" unicode="&#xec;" horiz-adv-x="405" 
d="M247 0h-88l-33 276l-22 190l1 -2l3 -109v-355h-84v572h140l29 -237q7 -50 11 -98t4 -77q0 51 2 95t7 80l25 237h139v-572h-84v264l3 202l1 -2l-23 -217z" />
    <glyph glyph-name="igrave" unicode="&#x43c;" horiz-adv-x="405" 
d="M247 0h-88l-33 276l-22 190l1 -2l3 -109v-355h-84v572h140l29 -237q7 -50 11 -98t4 -77q0 51 2 95t7 80l25 237h139v-572h-84v264l3 202l1 -2l-23 -217z" />
    <glyph glyph-name="iacute" unicode="&#xed;" horiz-adv-x="278" 
d="M116 0h-96v572h96v-218h46v218h96v-572h-96v276h-46v-276z" />
    <glyph glyph-name="iacute" unicode="&#x43d;" horiz-adv-x="278" 
d="M116 0h-96v572h96v-218h46v218h96v-572h-96v276h-46v-276z" />
    <glyph glyph-name="icircumflex" unicode="&#xee;" horiz-adv-x="278" 
d="M258 483v-394q0 -44 -32 -70t-87 -26t-87 26t-32 70v394q0 44 32 70t87 26t87 -26t32 -70zM162 91v390q0 18 -5 23t-18 5t-18 -5t-5 -23v-390q0 -18 5 -23t18 -5t18 5t5 23z" />
    <glyph glyph-name="icircumflex" unicode="&#x43e;" horiz-adv-x="278" 
d="M258 483v-394q0 -44 -32 -70t-87 -26t-87 26t-32 70v394q0 44 32 70t87 26t87 -26t32 -70zM162 91v390q0 18 -5 23t-18 5t-18 -5t-5 -23v-390q0 -18 5 -23t18 -5t18 5t5 23z" />
    <glyph glyph-name="idieresis" unicode="&#xef;" horiz-adv-x="278" 
d="M115 0h-95v572h238v-572h-96v494h-47v-494z" />
    <glyph glyph-name="idieresis" unicode="&#x43f;" horiz-adv-x="278" 
d="M115 0h-95v572h238v-572h-96v494h-47v-494z" />
    <glyph glyph-name="eth" unicode="&#xf0;" horiz-adv-x="278" 
d="M20 -128v700h96v-34q14 17 32.5 29t38.5 12q31 0 51 -16.5t20 -50.5v-452q0 -34 -20 -50.5t-51 -16.5q-22 0 -39.5 12t-29.5 31l-2 -164h-96zM162 110v352q0 21 -6 28t-17 7t-17 -7t-6 -28v-352q0 -21 6 -28t17 -7t17 7t6 28z" />
    <glyph glyph-name="eth" unicode="&#x440;" horiz-adv-x="278" 
d="M20 -128v700h96v-34q14 17 32.5 29t38.5 12q31 0 51 -16.5t20 -50.5v-452q0 -34 -20 -50.5t-51 -16.5q-22 0 -39.5 12t-29.5 31l-2 -164h-96zM162 110v352q0 21 -6 28t-17 7t-17 -7t-6 -28v-352q0 -21 6 -28t17 -7t17 7t6 28z" />
    <glyph glyph-name="ntilde" unicode="&#xf1;" horiz-adv-x="278" 
d="M20 89v394q0 44 32 70t87 26t87 -26t32 -70v-115h-96v106q0 21 -6 28t-17 7t-17 -7t-6 -28v-383q0 -18 5 -23t18 -5t18 5t5 23v134h96v-136q0 -44 -32 -70t-87 -26t-87 26t-32 70z" />
    <glyph glyph-name="ntilde" unicode="&#x441;" horiz-adv-x="278" 
d="M20 89v394q0 44 32 70t87 26t87 -26t32 -70v-115h-96v106q0 21 -6 28t-17 7t-17 -7t-6 -28v-383q0 -18 5 -23t18 -5t18 5t5 23v134h96v-136q0 -44 -32 -70t-87 -26t-87 26t-32 70z" />
    <glyph glyph-name="ograve" unicode="&#xf2;" horiz-adv-x="262" 
d="M3 572h256v-78h-80v-494h-95v494h-81v78z" />
    <glyph glyph-name="ograve" unicode="&#x442;" horiz-adv-x="262" 
d="M3 572h256v-78h-80v-494h-95v494h-81v78z" />
    <glyph glyph-name="oacute" unicode="&#xf3;" horiz-adv-x="278" 
d="M70 99l-66 473h95l21 -190q16 -144 16 -256h4q0 126 15 236l23 210h95l-85 -606q-9 -63 -26.5 -78.5t-79.5 -15.5l-59 1v75h29q20 0 27 9t7 25t-7.5 59t-8.5 58z" />
    <glyph glyph-name="oacute" unicode="&#x443;" horiz-adv-x="278" 
d="M70 99l-66 473h95l21 -190q16 -144 16 -256h4q0 126 15 236l23 210h95l-85 -606q-9 -63 -26.5 -78.5t-79.5 -15.5l-59 1v75h29q20 0 27 9t7 25t-7.5 59t-8.5 58z" />
    <glyph glyph-name="ocircumflex" unicode="&#xf4;" horiz-adv-x="426" 
d="M165 -128v164q-14 -19 -31.5 -31t-39.5 -12q-31 0 -49 15q-22 18 -22 52v452q0 34 20 50.5t51 16.5q21 0 38 -11t31 -30l2 174h96v-174q14 17 32.5 29t38.5 12q31 0 51 -16.5t20 -50.5v-452q0 -34 -20 -50.5t-51 -16.5q-22 0 -39.5 12t-29.5 31l-2 -164h-96zM119 110
q0 -21 6 -28t17 -7t17 7t6 28v352q0 21 -6 28t-17 7t-17 -7t-6 -28v-352zM307 110v352q0 21 -6 28t-17 7t-17 -7t-6 -28v-352q0 -21 6 -28t17 -7t17 7t6 28z" />
    <glyph glyph-name="ocircumflex" unicode="&#x444;" horiz-adv-x="426" 
d="M165 -128v164q-14 -19 -31.5 -31t-39.5 -12q-31 0 -49 15q-22 18 -22 52v452q0 34 20 50.5t51 16.5q21 0 38 -11t31 -30l2 174h96v-174q14 17 32.5 29t38.5 12q31 0 51 -16.5t20 -50.5v-452q0 -34 -20 -50.5t-51 -16.5q-22 0 -39.5 12t-29.5 31l-2 -164h-96zM119 110
q0 -21 6 -28t17 -7t17 7t6 28v352q0 21 -6 28t-17 7t-17 -7t-6 -28v-352zM307 110v352q0 21 -6 28t-17 7t-17 -7t-6 -28v-352q0 -21 6 -28t17 -7t17 7t6 28z" />
    <glyph glyph-name="otilde" unicode="&#xf5;" horiz-adv-x="259" 
d="M9 572h96q13 -98 27 -196q1 35 11 104t12 92h92l-48 -270l56 -302h-96q-9 47 -15 91q-9 71 -17 143q-1 -49 -11.5 -112.5t-19.5 -121.5h-92l58 300z" />
    <glyph glyph-name="otilde" unicode="&#x445;" horiz-adv-x="259" 
d="M9 572h96q13 -98 27 -196q1 35 11 104t12 92h92l-48 -270l56 -302h-96q-9 47 -15 91q-9 71 -17 143q-1 -49 -11.5 -112.5t-19.5 -121.5h-92l58 300z" />
    <glyph glyph-name="odieresis" unicode="&#xf6;" horiz-adv-x="278" 
d="M20 0v572h96v-494h46v494h96v-494h20v-186h-89v108h-169z" />
    <glyph glyph-name="odieresis" unicode="&#x446;" horiz-adv-x="278" 
d="M20 0v572h96v-494h46v494h96v-494h20v-186h-89v108h-169z" />
    <glyph glyph-name="divide" unicode="&#xf7;" horiz-adv-x="278" 
d="M20 572h95v-220q0 -6 5.5 -10.5t13.5 -4.5q17 0 28 16v219h96v-572h-96v274q-23 -16 -60 -16q-43 0 -62.5 26t-19.5 68v220z" />
    <glyph glyph-name="divide" unicode="&#x447;" horiz-adv-x="278" 
d="M20 572h95v-220q0 -6 5.5 -10.5t13.5 -4.5q17 0 28 16v219h96v-572h-96v274q-23 -16 -60 -16q-43 0 -62.5 26t-19.5 68v220z" />
    <glyph glyph-name="oslash" unicode="&#xf8;" horiz-adv-x="426" 
d="M22 0v572h96v-494h47v494h96v-494h47v494h96v-572h-382z" />
    <glyph glyph-name="oslash" unicode="&#x448;" horiz-adv-x="426" 
d="M22 0v572h96v-494h47v494h96v-494h47v494h96v-572h-382z" />
    <glyph glyph-name="ugrave" unicode="&#xf9;" horiz-adv-x="426" 
d="M22 0v572h96v-494h47v494h96v-494h47v494h96v-494h20v-186h-89v108h-313z" />
    <glyph glyph-name="ugrave" unicode="&#x449;" horiz-adv-x="426" 
d="M22 0v572h96v-494h47v494h96v-494h47v494h96v-494h20v-186h-89v108h-313z" />
    <glyph glyph-name="uacute" unicode="&#xfa;" horiz-adv-x="309" 
d="M3 494v78h142v-218q76 0 109 -24q38 -28 38 -94v-123q0 -58 -34.5 -85.5t-110.5 -27.5h-98v494h-46zM197 124v135q-1 12 -11 17.5t-41 5.5v-210q31 0 39 6q13 10 13 46z" />
    <glyph glyph-name="uacute" unicode="&#x44a;" horiz-adv-x="309" 
d="M3 494v78h142v-218q76 0 109 -24q38 -28 38 -94v-123q0 -58 -34.5 -85.5t-110.5 -27.5h-98v494h-46zM197 124v135q-1 12 -11 17.5t-41 5.5v-210q31 0 39 6q13 10 13 46z" />
    <glyph glyph-name="ucircumflex" unicode="&#xfb;" horiz-adv-x="422" 
d="M402 0h-96v572h96v-572zM120 572v-218q76 0 109 -25.5t33 -92.5v-123q0 -58 -33 -85.5t-107 -27.5h-98v572h96zM166 124v127q0 19 -10.5 25t-35.5 6v-210q29 0 37.5 7.5t8.5 44.5z" />
    <glyph glyph-name="ucircumflex" unicode="&#x44b;" horiz-adv-x="422" 
d="M402 0h-96v572h96v-572zM120 572v-218q76 0 109 -25.5t33 -92.5v-123q0 -58 -33 -85.5t-107 -27.5h-98v572h96zM166 124v127q0 19 -10.5 25t-35.5 6v-210q29 0 37.5 7.5t8.5 44.5z" />
    <glyph glyph-name="udieresis" unicode="&#xfc;" horiz-adv-x="278" 
d="M116 572v-218q76 0 109 -25.5t33 -92.5v-123q0 -58 -33 -85.5t-107 -27.5h-98v572h96zM162 124v127q0 19 -10.5 25t-35.5 6v-210q29 0 37.5 7.5t8.5 44.5z" />
    <glyph glyph-name="udieresis" unicode="&#x44c;" horiz-adv-x="278" 
d="M116 572v-218q76 0 109 -25.5t33 -92.5v-123q0 -58 -33 -85.5t-107 -27.5h-98v572h96zM162 124v127q0 19 -10.5 25t-35.5 6v-210q29 0 37.5 7.5t8.5 44.5z" />
    <glyph glyph-name="yacute" unicode="&#xfd;" horiz-adv-x="278" 
d="M162 326v148q0 21 -6 28t-17 7t-17 -7t-6 -28v-106h-96v115q0 44 32 70t87 26t87 -26t32 -70v-394q0 -44 -32 -70t-87 -26t-87 26t-32 70v136h96v-134q0 -18 5 -23t18 -5t18 5t5 23v163h-46v72h46z" />
    <glyph glyph-name="yacute" unicode="&#x44d;" horiz-adv-x="278" 
d="M162 326v148q0 21 -6 28t-17 7t-17 -7t-6 -28v-106h-96v115q0 44 32 70t87 26t87 -26t32 -70v-394q0 -44 -32 -70t-87 -26t-87 26t-32 70v136h96v-134q0 -18 5 -23t18 -5t18 5t5 23v163h-46v72h46z" />
    <glyph glyph-name="thorn" unicode="&#xfe;" horiz-adv-x="426" 
d="M166 276h-48v-276h-96v572h96v-218h48v129q0 44 32 70t87 26t87 -26t32 -70v-394q0 -44 -32 -70t-87 -26t-87 26t-32 70v187zM308 91v390q0 18 -5 23t-18 5t-18 -5t-5 -23v-390q0 -18 5 -23t18 -5t18 5t5 23z" />
    <glyph glyph-name="thorn" unicode="&#x44e;" horiz-adv-x="426" 
d="M166 276h-48v-276h-96v572h96v-218h48v129q0 44 32 70t87 26t87 -26t32 -70v-394q0 -44 -32 -70t-87 -26t-87 26t-32 70v187zM308 91v390q0 18 -5 23t-18 5t-18 -5t-5 -23v-390q0 -18 5 -23t18 -5t18 5t5 23z" />
    <glyph glyph-name="ydieresis" unicode="&#xff;" horiz-adv-x="278" 
d="M162 0v263q-29 0 -37.5 -9.5t-8.5 -34.5v-67q0 -47 -2.5 -83.5t-10.5 -68.5h-94q7 38 11 90.5t4 145.5q0 36 28 52q19 11 59 16v4q-54 6 -72.5 27t-18.5 57v81q0 53 31 76t89 23h118v-572h-96zM148 500q-32 0 -32 -26v-103q0 -17 7.5 -25.5t29.5 -8.5h9v163h-14z" />
    <glyph glyph-name="ydieresis" unicode="&#x44f;" horiz-adv-x="278" 
d="M162 0v263q-29 0 -37.5 -9.5t-8.5 -34.5v-67q0 -47 -2.5 -83.5t-10.5 -68.5h-94q7 38 11 90.5t4 145.5q0 36 28 52q19 11 59 16v4q-54 6 -72.5 27t-18.5 57v81q0 53 31 76t89 23h118v-572h-96zM148 500q-32 0 -32 -26v-103q0 -17 7.5 -25.5t29.5 -8.5h9v163h-14z" />
    <glyph glyph-name="OE" unicode="&#x152;" horiz-adv-x="500" 
d="M302 85q37 0 48 9q17 13 17 59v169q-2 25 -22.5 28.5t-42.5 3.5v-269zM196 346h-59v-346h-106v712h106v-273h59v273h106v-273q90 0 128 -29q43 -33 43 -117v-154q0 -72 -39.5 -105.5t-126.5 -33.5h-111v346z" />
    <glyph glyph-name="OE" unicode="&#x40a;" horiz-adv-x="500" 
d="M302 85q37 0 48 9q17 13 17 59v169q-2 25 -22.5 28.5t-42.5 3.5v-269zM196 346h-59v-346h-106v712h106v-273h59v273h106v-273q90 0 128 -29q43 -33 43 -117v-154q0 -72 -39.5 -105.5t-126.5 -33.5h-111v346z" />
    <glyph glyph-name="oe" unicode="&#x153;" horiz-adv-x="420" 
d="M304 124v127q0 19 -10.5 25t-35.5 6v-210q29 0 37.5 7.5t8.5 44.5zM162 276h-46v-276h-96v572h96v-218h46v218h96v-218q76 0 109 -25.5t33 -92.5v-123q0 -58 -33 -85.5t-107 -27.5h-98v276z" />
    <glyph glyph-name="oe" unicode="&#x45a;" horiz-adv-x="420" 
d="M304 124v127q0 19 -10.5 25t-35.5 6v-210q29 0 37.5 7.5t8.5 44.5zM162 276h-46v-276h-96v572h96v-218h46v218h96v-218q76 0 109 -25.5t33 -92.5v-123q0 -58 -33 -85.5t-107 -27.5h-98v276z" />
    <glyph glyph-name="Scaron" unicode="&#x160;" horiz-adv-x="500" 
d="M302 85q37 0 48 9q17 13 17 59v169q-2 25 -22.5 28.5t-42.5 3.5v-269zM302 712v-273q90 0 128 -29q43 -33 43 -117v-154q0 -72 -39.5 -105.5t-126.5 -33.5h-111v619h-59v-483q0 -150 -137 -150v105q16 0 24 7q12 11 12 44v570h266z" />
    <glyph glyph-name="Scaron" unicode="&#x409;" horiz-adv-x="500" 
d="M302 85q37 0 48 9q17 13 17 59v169q-2 25 -22.5 28.5t-42.5 3.5v-269zM302 712v-273q90 0 128 -29q43 -33 43 -117v-154q0 -72 -39.5 -105.5t-126.5 -33.5h-111v619h-59v-483q0 -150 -137 -150v105q16 0 24 7q12 11 12 44v570h266z" />
    <glyph glyph-name="scaron" unicode="&#x161;" horiz-adv-x="420" 
d="M304 124v127q0 19 -10.5 25t-35.5 6v-210q29 0 37.5 7.5t8.5 44.5zM162 494h-46v-384q0 -59 -32 -90t-89 -31l-2 88q16 0 21 4q10 8 10 34v457h234v-218q76 0 109 -25.5t33 -92.5v-123q0 -58 -33 -85.5t-107 -27.5h-98v494z" />
    <glyph glyph-name="scaron" unicode="&#x459;" horiz-adv-x="420" 
d="M304 124v127q0 19 -10.5 25t-35.5 6v-210q29 0 37.5 7.5t8.5 44.5zM162 494h-46v-384q0 -59 -32 -90t-89 -31l-2 88q16 0 21 4q10 8 10 34v457h234v-218q76 0 109 -25.5t33 -92.5v-123q0 -58 -33 -85.5t-107 -27.5h-98v494z" />
    <glyph glyph-name="Ydieresis" unicode="&#x178;" horiz-adv-x="278" 
d="M95 0h-75v572h96v-494h46v494h96v-572h-75v-108h-88v108z" />
    <glyph glyph-name="Ydieresis" unicode="&#x45f;" horiz-adv-x="278" 
d="M95 0h-75v572h96v-494h46v494h96v-572h-75v-108h-88v108z" />
    <glyph glyph-name="florin" unicode="&#x192;" horiz-adv-x="222" 
d="M116 0h-96v572h202v-78h-106v-494zM45 622l93 171h99l-138 -171h-54z" />
    <glyph glyph-name="florin" unicode="&#x453;" horiz-adv-x="222" 
d="M116 0h-96v572h202v-78h-106v-494zM45 622l93 171h99l-138 -171h-54z" />
    <glyph glyph-name="endash" unicode="&#x2013;" horiz-adv-x="500" 
d="M500 266h-500v67h500v-67z" />
    <glyph glyph-name="emdash" unicode="&#x2014;" horiz-adv-x="1000" 
d="M0 266v67h1000v-67h-1000z" />
    <glyph glyph-name="quoteleft" unicode="&#x2018;" horiz-adv-x="167" 
d="M105 712l34 -209h-63l-63 209h92z" />
    <glyph glyph-name="quoteright" unicode="&#x2019;" horiz-adv-x="167" 
d="M62 712h92l-63 -209h-63z" />
    <glyph glyph-name="quotesinglbase" unicode="&#x201a;" horiz-adv-x="167" 
d="M62 111h92l-63 -209h-63z" />
    <glyph glyph-name="quotedblleft" unicode="&#x201c;" horiz-adv-x="315" 
d="M112 712l34 -209h-63l-63 209h92zM242 712l34 -209h-63l-63 209h92z" />
    <glyph glyph-name="quotedblright" unicode="&#x201d;" horiz-adv-x="315" 
d="M73 712h92l-63 -209h-63zM203 712h92l-63 -209h-63z" />
    <glyph glyph-name="quotedblbase" unicode="&#x201e;" horiz-adv-x="315" 
d="M73 111h92l-63 -209h-63zM203 111h92l-63 -209h-63z" />
    <glyph glyph-name="dagger" unicode="&#x2020;" 
d="M323 409h-107v-525h-99v525h-107v85h107v218h99v-218h107v-85z" />
    <glyph glyph-name="daggerdbl" unicode="&#x2021;" 
d="M10 501h107v211h99v-211h107v-85h-107v-239h107v-85h-107v-208h-99v208h-107v85h107v239h-107v85z" />
    <glyph glyph-name="bullet" unicode="&#x2022;" horiz-adv-x="500" 
d="M425 350q0 -73 -51 -124t-124 -51q-74 0 -124.5 50.5t-50.5 124.5t50.5 124.5t124.5 50.5q73 0 124 -51t51 -124z" />
    <glyph glyph-name="ellipsis" unicode="&#x2026;" horiz-adv-x="1000" 
d="M216 0h-100v111h100v-111zM550 0h-100v111h100v-111zM884 0h-100v111h100v-111z" />
    <glyph glyph-name="perthousand" unicode="&#x2030;" horiz-adv-x="778" 
d="M179 -8h-48l233 728h48zM243 633v-224q0 -44 -29.5 -67.5t-79.5 -23.5q-47 0 -72 18q-29 21 -29 67v179q0 65 19 94q24 36 86 36q44 0 74.5 -19.5t30.5 -59.5zM114 615v-194v-22q3 -19 26 -19q13 0 17.5 9t4.5 24v15v176q0 25 -1 29q-4 17 -21 17t-21.5 -8t-4.5 -27z
M296 85v179q0 65 19 94q24 36 86 36q44 0 74.5 -19.5t30.5 -59.5v-224q0 -44 -29.5 -67.5t-79.5 -23.5q-47 0 -72 18q-29 21 -29 67zM377 297v-194v-22q3 -19 26 -19q13 0 17.5 9t4.5 24v15v176q0 25 -1 29q-4 17 -21 17t-21.5 -8t-4.5 -27zM753 315v-224q0 -44 -29.5 -67.5
t-79.5 -23.5q-47 0 -72 18q-29 21 -29 67v179q0 65 19 94q24 36 86 36q44 0 74.5 -19.5t30.5 -59.5zM624 297v-194v-22q3 -19 26 -19q13 0 17.5 9t4.5 24v15v176q0 25 -1 29q-4 17 -21 17t-21.5 -8t-4.5 -27z" />
    <glyph glyph-name="guilsinglleft" unicode="&#x2039;" horiz-adv-x="185" 
d="M161 501v-122l-87 -93l87 -91v-127l-137 153v130z" />
    <glyph glyph-name="guilsinglright" unicode="&#x203a;" horiz-adv-x="185" 
d="M24 379v122l137 -150v-130l-137 -153v127l87 91z" />
    <glyph glyph-name="trademark" unicode="&#x2122;" horiz-adv-x="990" 
d="M383 712v-70h-122v-342h-88v342h-122v70h332zM599 712l109 -281l107 281h124v-412h-82v314l-119 -314h-62l-117 314l-2 -314h-82v412h124z" />
    </font>
</defs>
</svg>
